<?xml version="1.0" standalone="no"?>
<!DOCTYPE svg PUBLIC "-//W3C//DTD SVG 1.1//EN" "http://www.w3.org/Graphics/SVG/1.1/DTD/svg11.dtd" >
<svg xmlns="http://www.w3.org/2000/svg" xmlns:xlink="http://www.w3.org/1999/xlink" version="1.1">
<metadata>
Created by FontForge 20170731 at Thu Nov 12 18:15:27 2015
 By Aleksey,,,
Copyright (c) 2013 by Luciano Vergara. All rights reserved.
</metadata>
<defs>
<font id="Estandar-Regular" horiz-adv-x="534" >
  <font-face 
    font-family="Estandar"
    font-weight="400"
    font-stretch="normal"
    units-per-em="1000"
    panose-1="0 0 5 0 0 0 0 0 0 0"
    ascent="750"
    descent="-250"
    x-height="560"
    cap-height="700"
    bbox="-410 -233 1427 940"
    underline-thickness="50"
    underline-position="-150"
    unicode-range="U+0020-FB02"
  />
<missing-glyph horiz-adv-x="285" 
 />
    <glyph glyph-name="fi" unicode="fi" horiz-adv-x="521" 
d="M448 560v-560h-92v481h-195v-481h-93v481h-60v79h60v3q0 181 187 181q56 0 94.5 -9.5t73.5 -22.5l-22 -69q-2 1 -34 12.5t-104 11.5q-54 0 -78.5 -25.5t-23.5 -76.5v-5h287z" />
    <glyph glyph-name="fl" unicode="fl" horiz-adv-x="512" 
d="M445 699v-699h-92v656q-40 11 -90 11q-54 0 -78.5 -25.5t-23.5 -76.5v-5h141v-79h-141v-481h-93v481h-60v79h60v3q0 181 187 181q112 0 190 -45z" />
    <glyph glyph-name="f_f" unicode="ff" horiz-adv-x="610" 
d="M425 560h156v-79h-156v-481h-93v481h-171v-481h-93v481h-60v79h60q1 92 49 138t132 46q68 0 132 -43q53 59 147 59q37 0 70 -10l-16 -72q-21 5 -49 5q-105 0 -108 -123zM332 560q0 42 13 74q-43 27 -91 27q-45 0 -67.5 -23t-25.5 -78h171z" />
    <glyph glyph-name="f_f_i" unicode="ffi" horiz-adv-x="749" 
d="M683 560v-560h-93v481h-165v-481h-93v481h-171v-481h-93v481h-60v79h60q1 92 49 138t132 46q68 0 132 -43q53 59 157 59q28 0 62.5 -7.5t57.5 -17.5l-19 -69q-17 6 -45.5 11.5t-50.5 5.5q-58 0 -87.5 -30t-30.5 -93h258zM186.5 638q-22.5 -23 -25.5 -78h171q0 42 13 74
q-43 27 -91 27q-45 0 -67.5 -23z" />
    <glyph glyph-name="f_f_l" unicode="ffl" horiz-adv-x="774" 
d="M707 711v-711h-92v672q-39 11 -72 11q-58 0 -87.5 -30t-30.5 -93h139v-79h-139v-481h-93v481h-171v-481h-93v481h-60v79h60q1 92 49 138t132 46q68 0 132 -43q53 59 157 59q90 0 169 -49zM332 560q0 42 13 74q-43 27 -91 27q-45 0 -67.5 -23t-25.5 -78h171z" />
    <glyph glyph-name=".notdef" horiz-adv-x="285" 
 />
    <glyph glyph-name=".null" horiz-adv-x="0" 
 />
    <glyph glyph-name="nonmarkingreturn" horiz-adv-x="333" 
 />
    <glyph glyph-name="space" unicode=" " horiz-adv-x="229" 
 />
    <glyph glyph-name="exclam" unicode="!" horiz-adv-x="238" 
d="M73 700h93v-174l-9 -351h-75l-9 351v174zM82 4q-13 14 -13 42q0 26 13 39t36 13q52 0 52 -52q0 -28 -13.5 -42t-38.5 -14q-23 0 -36 14z" />
    <glyph glyph-name="quotedbl" unicode="&#x22;" horiz-adv-x="283" 
d="M123 750l-12 -193h-66l-12 193h90zM251 750l-12 -193h-66l-12 193h90z" />
    <glyph glyph-name="numbersign" unicode="#" horiz-adv-x="626" 
d="M19 197l17 78h110l31 150h-113l18 77h111l41 198h83l-40 -198h130l40 198h85l-42 -198h117l-17 -77h-114l-33 -150h118l-17 -78h-116l-41 -197h-83l40 197h-131l-39 -197h-83l40 197h-112zM391 425h-130l-31 -150h131z" />
    <glyph glyph-name="dollar" unicode="$" horiz-adv-x="561" 
d="M123 47.5q-51 40.5 -68 101.5l87 27q11 -35 40 -60t69 -31v223q-189 32 -189 185v19q0 81 47 131.5t142 57.5v99h64v-100q69 -8 113.5 -45.5t61.5 -94.5l-86 -24q-9 29 -32.5 51t-56.5 27v-221q87 -12 142.5 -53.5t55.5 -124.5v-23q0 -85 -50.5 -136t-147.5 -58v-98h-64
v99q-77 8 -128 48.5zM177.5 584.5q-24.5 -28.5 -24.5 -71.5v-10q0 -46 25 -68t73 -32v214q-49 -4 -73.5 -32.5zM395 117q27 30 27 77v9q0 41 -28 63.5t-79 31.5v-215q53 4 80 34z" />
    <glyph glyph-name="percent" unicode="%" horiz-adv-x="876" 
d="M729 700l-516 -746l-65 46l513 746zM93 671.5q42 40.5 112 40.5t111.5 -40.5t41.5 -109.5v-127q0 -69 -42 -109.5t-111 -40.5t-111.5 40.5t-42.5 109.5v127q0 69 42 109.5zM153 379q19 -22 52 -22q32 0 51.5 22t19.5 64v110q0 42 -19.5 64.5t-51.5 22.5q-33 0 -52 -22.5
t-19 -64.5v-110q0 -42 19 -64zM562 376.5q42 40.5 112 40.5q68 0 109.5 -40.5t41.5 -109.5v-127q0 -69 -41.5 -110t-109.5 -41q-70 0 -112 41t-42 110v127q0 69 42 109.5zM620.5 83.5q19.5 -22.5 53.5 -22.5q32 0 51 22.5t19 63.5v111q0 42 -19 64.5t-51 22.5
q-34 0 -53.5 -22.5t-19.5 -64.5v-111q0 -41 19.5 -63.5z" />
    <glyph glyph-name="ampersand" unicode="&#x26;" horiz-adv-x="656" 
d="M94 280.5q39 48.5 97 90.5q-41 46 -65.5 87.5t-24.5 85.5q0 74 47.5 122t132.5 48q94 0 137.5 -42.5t43.5 -116.5q0 -41 -18 -73t-45.5 -57t-78.5 -62l140 -161q19 32 29 69.5t9 64.5l88 -15q-4 -47 -20.5 -96t-45.5 -93l80 -88l-69 -57l-69 76q-36 -36 -84.5 -56.5
t-103.5 -20.5q-104 0 -161.5 44.5t-57.5 132.5v12q0 57 39 105.5zM305 455q33 24 49 48t16 49q0 40 -20 60.5t-69 20.5q-43 0 -65 -21.5t-22 -63.5q0 -32 16.5 -56.5t54.5 -65.5q7 5 40 29zM278 69q75 0 128 58l-159 182q-48 -37 -71.5 -70t-23.5 -71v-3q0 -96 126 -96z" />
    <glyph glyph-name="quotesingle" unicode="'" horiz-adv-x="155" 
d="M123 750l-12 -193h-66l-12 193h90z" />
    <glyph glyph-name="parenleft" unicode="(" horiz-adv-x="298" 
d="M114.5 676q52.5 68 141.5 82l17 -80q-54 -8 -87 -58t-33 -122v-356q0 -72 33 -122t87 -58l-17 -80q-89 14 -141.5 82t-52.5 165v382q0 97 52.5 165z" />
    <glyph glyph-name="parenright" unicode=")" horiz-adv-x="298" 
d="M184.5 676q52.5 -68 52.5 -165v-382q0 -97 -52.5 -165t-141.5 -82l-18 80q55 8 88 57.5t33 122.5v356q0 73 -33 122.5t-88 57.5l18 80q89 -14 141.5 -82z" />
    <glyph glyph-name="asterisk" unicode="*" horiz-adv-x="438" 
d="M39 554l24 78l124 -47l-4 138h76l-3 -136l121 45l24 -78l-127 -38l81 -110l-62 -47l-72 116l-74 -116l-63 48l83 110z" />
    <glyph glyph-name="plus" unicode="+" horiz-adv-x="562" 
d="M51 259v88h187v215h87v-215h188v-88h-188v-215h-87v215h-187z" />
    <glyph glyph-name="comma" unicode="," horiz-adv-x="194" 
d="M50.5 -33q12.5 14 12.5 33q-21 15 -21 49q0 31 14.5 46.5t40.5 15.5t41.5 -15.5t15.5 -46.5q0 -46 -25 -91t-87 -63l-22 49q18 9 30.5 23z" />
    <glyph glyph-name="hyphen" unicode="-" horiz-adv-x="381" 
d="M331 345v-86h-280v86h280z" />
    <glyph glyph-name="period" unicode="." horiz-adv-x="194" 
d="M56.5 4q-14.5 15 -14.5 44q0 31 14.5 47t40.5 16t41.5 -16t15.5 -47q0 -29 -15.5 -44t-41.5 -15t-40.5 15z" />
    <glyph glyph-name="slash" unicode="/" horiz-adv-x="470" 
d="M464 750l-380 -890l-76 30l378 892z" />
    <glyph glyph-name="zero" unicode="0" horiz-adv-x="554" 
d="M84 611q28 50 78 76.5t116 26.5t116 -26.5t77.5 -76.5t27.5 -117v-288q0 -67 -27.5 -117t-77.5 -76.5t-116 -26.5t-116 26.5t-78 76.5t-28 117v288q0 67 28 117zM185.5 111.5q33.5 -37.5 92.5 -37.5q58 0 91.5 37.5t33.5 108.5v260q0 71 -33.5 108.5t-91.5 37.5
q-59 0 -92.5 -37.5t-33.5 -108.5v-260q0 -71 33.5 -108.5z" />
    <glyph glyph-name="one" unicode="1" horiz-adv-x="277" 
d="M217 0h-96v583l-88 -59l-46 71l148 105h82v-700z" />
    <glyph glyph-name="two" unicode="2" horiz-adv-x="549" 
d="M328 384q35 40 51 72t16 62q0 47 -30.5 78t-87.5 31q-42 0 -69.5 -19.5t-40.5 -51.5l-93 27q20 59 73 95t130 36q105 0 161 -53.5t56 -140.5q0 -57 -27.5 -105.5t-77.5 -105.5l-192 -222h308v-87h-453v62z" />
    <glyph glyph-name="three" unicode="3" horiz-adv-x="539" 
d="M127.5 23.5q-53.5 37.5 -72.5 97.5l89 29q14 -35 43.5 -56t73.5 -21q121 0 121 117v17q0 66 -29.5 95t-83.5 29h-76v80h76q50 0 76.5 30t26.5 81q-1 48 -27.5 78t-80.5 30q-43 0 -73 -19.5t-41 -53.5l-87 26q19 58 71.5 94.5t129.5 36.5q101 0 152 -52.5t51 -137.5
q0 -42 -18 -82.5t-51 -67.5q37 -18 61.5 -63t24.5 -92v-31q0 -93 -57.5 -147.5t-165.5 -54.5q-80 0 -133.5 37.5z" />
    <glyph glyph-name="four" unicode="4" horiz-adv-x="558" 
d="M280 710l98 -13l-226 -475h217v253l96 13v-266h70v-87h-70v-135h-96v135h-336v61z" />
    <glyph glyph-name="five" unicode="5" horiz-adv-x="538" 
d="M191 95.5q28 -21.5 73 -21.5q59 0 90 30t31 84v50q0 69 -29 97t-86 28q-35 0 -70 -11.5t-62 -30.5l-72 46l43 333h350v-87h-265l-24 -192q21 13 50.5 21t59.5 8q98 0 152.5 -49.5t54.5 -151.5v-62q0 -92 -58.5 -146t-164.5 -54q-81 0 -132 37t-71 99l90 30
q12 -36 40 -57.5z" />
    <glyph glyph-name="six" unicode="6" horiz-adv-x="563" 
d="M84 610q28 50 79 77t118 27q85 0 139.5 -36.5t73.5 -103.5l-92 -27q-11 38 -42 59t-79 21q-60 0 -94 -38.5t-34 -108.5v-104q27 20 68.5 32.5t82.5 12.5q94 0 149 -48.5t55 -147.5v-31q0 -100 -61.5 -154t-163.5 -54q-103 0 -165 50.5t-62 150.5v307q0 66 28 116zM283 74
q61 0 95 33t34 103q0 67 -28 95t-88 28q-42 0 -79.5 -12.5t-63.5 -34.5v-83q0 -129 130 -129z" />
    <glyph glyph-name="seven" unicode="7" horiz-adv-x="449" 
d="M16 613v87h423v-61l-263 -649l-99 13l250 610h-311z" />
    <glyph glyph-name="eight" unicode="8" horiz-adv-x="573" 
d="M77 311.5q23 42.5 59 65.5q-32 28 -50.5 68.5t-18.5 80.5q0 86 56 137t164 51q109 0 165 -51t56 -137q0 -40 -18.5 -80.5t-50.5 -68.5q37 -22 59.5 -65t22.5 -90v-34q0 -94 -58.5 -148t-175.5 -54t-175 54t-58 148v34q0 47 23 89.5zM384 442q28 32 28 81q0 47 -32 76.5
t-93 29.5t-93 -29.5t-32 -76.5q0 -50 26 -81.5t77 -31.5h40q51 0 79 32zM186.5 104q31.5 -30 100.5 -30t100.5 30t31.5 86v22q0 56 -28 89t-78 33h-51q-51 0 -79 -33t-28 -89v-22q0 -56 31.5 -86z" />
    <glyph glyph-name="nine" unicode="9" horiz-adv-x="560" 
d="M203 94.5q32 -20.5 79 -20.5q59 0 93 38t34 108v98q-53 -32 -148 -32t-150 48t-55 146v28q0 100 61 153t163 53q103 0 164 -49.5t61 -149.5v-309q0 -66 -28 -116t-78.5 -77t-116.5 -27q-83 0 -140 38t-74 103l92 26q11 -38 43 -58.5zM280 626q-127 0 -127 -132
q0 -65 28 -92.5t88 -27.5q86 0 140 32v92q0 128 -129 128z" />
    <glyph glyph-name="colon" unicode=":" horiz-adv-x="214" 
d="M66.5 463q-14.5 15 -14.5 44q0 31 14.5 47t40.5 16t41.5 -16t15.5 -47q0 -29 -15.5 -44t-41.5 -15t-40.5 15zM66.5 5q-14.5 15 -14.5 45q0 31 14.5 46.5t40.5 15.5q27 0 42 -15.5t15 -46.5q0 -30 -15.5 -45t-41.5 -15t-40.5 15z" />
    <glyph glyph-name="semicolon" unicode=";" horiz-adv-x="217" 
d="M69.5 462.5q-14.5 14.5 -14.5 42.5q0 32 14.5 48.5t39.5 16.5q27 0 42.5 -15.5t15.5 -46.5q0 -30 -15.5 -45t-42.5 -15q-25 0 -39.5 14.5zM62.5 -32.5q12.5 14.5 12.5 32.5q-21 15 -21 49q0 30 15 46t40 16q26 0 41.5 -16t15.5 -46q0 -46 -25 -91t-87 -63l-21 49
q17 9 29.5 23.5z" />
    <glyph glyph-name="less" unicode="&#x3c;" horiz-adv-x="355" 
d="M253 49l-202 195v72l202 196l52 -62l-168 -170l168 -170z" />
    <glyph glyph-name="equal" unicode="=" horiz-adv-x="557" 
d="M507 446v-86h-456v86h456zM507 220v-86h-456v86h456z" />
    <glyph glyph-name="greater" unicode="&#x3e;" horiz-adv-x="355" 
d="M219 280l-168 170l52 62l202 -196v-72l-202 -195l-52 61z" />
    <glyph glyph-name="question" unicode="?" horiz-adv-x="491" 
d="M186.5 280.5q9.5 30.5 25.5 51.5t48 53l16 16q34 34 50.5 64.5t16.5 70.5v8q0 39 -25.5 62t-77.5 23q-46 0 -71.5 -19.5t-33.5 -52.5l-89 26q16 59 65 95t129 36q96 0 149 -47t53 -121v-16q0 -59 -23 -99.5t-70 -86.5q-45 -45 -62 -73.5t-17 -69.5v-34h-93v36
q0 47 9.5 77.5zM186 2q-15 15 -15 42t15 41.5t38 14.5q24 0 39 -14.5t15 -41.5q0 -28 -15 -42.5t-39 -14.5q-23 0 -38 15z" />
    <glyph glyph-name="at" unicode="@" horiz-adv-x="718" 
d="M147 610.5q46 48.5 115 74.5t145 26q70 0 129.5 -23.5t95 -66.5t35.5 -101q0 -7 -2 -25l-29 -220q-8 -58 -38 -90.5t-82 -32.5q-32 0 -53 14.5t-29 41.5q-20 -23 -52.5 -39.5t-59.5 -16.5q-55 0 -83 27.5t-28 80.5q0 9 2 29l16 120q8 66 44 100t96 34h154l-35 -273
q-2 -18 -2 -24q0 -20 8 -29.5t27 -9.5q24 0 37 16t18 50l29 216q1 7 1 19q0 70 -60 107.5t-146 37.5q-59 0 -113.5 -19t-91.5 -56.5t-44 -90.5l-38 -278q-1 -7 -1 -20q0 -70 60 -107.5t145 -37.5q68 0 137 24l16 -53q-71 -29 -158 -29q-71 0 -130.5 23.5t-95 66.5t-35.5 101
q0 7 2 25l39 295q9 65 55 113.5zM272 268q0 -63 59 -63q25 0 52.5 16.5t42.5 38.5l30 233h-85q-37 0 -57 -23t-27 -70l-13 -104q-2 -10 -2 -28z" />
    <glyph glyph-name="A" unicode="A" horiz-adv-x="581" 
d="M171 195l-60 -195h-107l240 700h94l239 -697l-103 -13l-64 205h-239zM384 281l-94 303l-93 -303h187z" />
    <glyph glyph-name="B" unicode="B" horiz-adv-x="567" 
d="M301 700q104 0 156.5 -42t52.5 -131v-40q0 -34 -16.5 -70t-49.5 -55q36 -15 59 -54.5t23 -86.5l-1 -48q0 -78 -50.5 -125.5t-148.5 -47.5h-265v700h240zM390 422q23 25 23 75v16q0 57 -25 77.5t-85 20.5h-145v-214h167q42 0 65 25zM402 114.5q26 26.5 26 70.5v26
q0 47 -24 74.5t-70 27.5h-176v-225h166q52 0 78 26.5z" />
    <glyph glyph-name="C" unicode="C" horiz-adv-x="535" 
d="M190.5 113.5q36.5 -38.5 97.5 -38.5q47 0 80 20.5t47 57.5l92 -25q-18 -66 -76 -104t-143 -38q-67 0 -119.5 27.5t-82.5 78t-30 116.5v284q0 67 30 117t82.5 77.5t119.5 27.5q85 0 143 -38t76 -104l-92 -25q-14 37 -47 57.5t-80 20.5q-61 0 -97.5 -38.5t-36.5 -107.5
v-257q0 -70 36.5 -108.5z" />
    <glyph glyph-name="D" unicode="D" horiz-adv-x="581" 
d="M307 700q101 0 159.5 -60t58.5 -162v-256q0 -102 -58.5 -162t-159.5 -60h-246v700h246zM397 126q31 38 31 109v230q0 71 -31 108.5t-90 37.5h-149v-523h149q59 0 90 38z" />
    <glyph glyph-name="E" unicode="E" horiz-adv-x="497" 
d="M458 700v-89h-300v-210h250v-88h-250v-225h307v-88h-404v700h397z" />
    <glyph glyph-name="F" unicode="F" horiz-adv-x="484" 
d="M459 700v-89h-301v-234h251v-88h-251v-289h-97v700h398z" />
    <glyph glyph-name="G" unicode="G" horiz-adv-x="570" 
d="M355.5 5.5q-43.5 -19.5 -93.5 -19.5q-97 0 -151.5 59t-54.5 162v285q0 67 30 117t84 77.5t122 27.5q85 0 144 -38t77 -104l-93 -25q-13 36 -46.5 57t-81.5 21q-62 0 -100 -38.5t-38 -107.5v-258q0 -70 33.5 -109t92.5 -39q42 0 81 19t65 55v140h-141v88h237v-385h-69
l-20 68q-34 -33 -77.5 -52.5z" />
    <glyph glyph-name="H" unicode="H" horiz-adv-x="585" 
d="M158 700v-293h270v293h97v-700h-97v318h-270v-318h-97v700h97z" />
    <glyph glyph-name="I" unicode="I" horiz-adv-x="218" 
d="M158 700v-700h-97v700h97z" />
    <glyph glyph-name="J" unicode="J" horiz-adv-x="286" 
d="M98.5 119q30.5 37 30.5 107v474h97v-489q1 -95 -55 -154t-151 -67l-13 84q61 8 91.5 45z" />
    <glyph glyph-name="K" unicode="K" horiz-adv-x="533" 
d="M158 201v-201h-97v700h97v-344l253 344h119l-232 -311l237 -386l-105 -13l-192 318z" />
    <glyph glyph-name="L" unicode="L" horiz-adv-x="472" 
d="M158 700v-612h305v-88h-402v700h97z" />
    <glyph glyph-name="M" unicode="M" horiz-adv-x="693" 
d="M146 700l201 -414l201 414h85v-700h-97l4 488l-150 -302h-93l-142 285l3 -471h-97v700h85z" />
    <glyph glyph-name="N" unicode="N" horiz-adv-x="602" 
d="M165 700l284 -526l-3 526h96v-700h-106l-282 524l3 -524h-96v700h104z" />
    <glyph glyph-name="O" unicode="O" horiz-adv-x="594" 
d="M88 609.5q32 50.5 87.5 77.5t122.5 27t122.5 -27t87.5 -77.5t32 -117.5v-284q0 -67 -32 -117.5t-87.5 -77.5t-122.5 -27t-122.5 27t-87.5 77.5t-32 117.5v284q0 67 32 117.5zM195 113.5q41 -38.5 104 -38.5q62 0 102.5 38.5t40.5 108.5v257q0 69 -40.5 108t-102.5 39
q-63 0 -104 -39t-41 -108v-257q0 -70 41 -108.5z" />
    <glyph glyph-name="P" unicode="P" horiz-adv-x="568" 
d="M307 700q101 0 159.5 -60t58.5 -162v-47q0 -102 -58.5 -162t-159.5 -60h-149v-209h-97v700h246zM397 335.5q31 37.5 31 108.5v21q0 71 -31 108.5t-90 37.5h-149v-313h149q59 0 90 37.5z" />
    <glyph glyph-name="Q" unicode="Q" horiz-adv-x="594" 
d="M420 14q-54 -28 -122 -28q-67 0 -122.5 27t-87.5 77.5t-32 117.5v284q0 67 32 117.5t87.5 77.5t122.5 27t122.5 -27t87.5 -77.5t32 -117.5v-284q0 -86 -53 -145l63 -71l-64 -55zM195 113.5q41 -38.5 104 -38.5q30 0 58 11l-59 68l63 54l59 -67q22 33 22 81v257
q0 69 -40.5 108t-102.5 39q-63 0 -104 -39t-41 -108v-257q0 -70 41 -108.5z" />
    <glyph glyph-name="R" unicode="R" horiz-adv-x="568" 
d="M158 274v-274h-97v700h246q66 0 115.5 -25.5t76.5 -69.5t27 -100v-36q0 -66 -38.5 -115.5t-105.5 -68.5l156 -282l-104 -13l-154 284h-122zM307 362q57 0 89 33t32 86v11q0 54 -32 86.5t-89 32.5h-149v-249h149z" />
    <glyph glyph-name="S" unicode="S" horiz-adv-x="539" 
d="M180 99.5q37 -23.5 87 -23.5q68 0 103.5 29t35.5 81v9q0 100 -138 113q-220 23 -220 191v21q0 89 54 141t164 52q88 0 142.5 -38t75.5 -102l-94 -27q-28 78 -124 78q-62 0 -92 -29t-30 -77v-8q0 -55 34.5 -78t103.5 -32q98 -12 159.5 -54.5t61.5 -137.5v-26
q0 -92 -60.5 -144t-174.5 -52q-89 0 -151.5 40.5t-82.5 103.5l93 29q16 -36 53 -59.5z" />
    <glyph glyph-name="T" unicode="T" horiz-adv-x="485" 
d="M9 612v88h469v-88h-186v-612h-97v612h-186z" />
    <glyph glyph-name="U" unicode="U" horiz-adv-x="580" 
d="M362 93.5q39 21.5 62 53.5v553h98v-517q0 -56 5.5 -89.5t21.5 -70.5l-87 -33q-13 19 -25 71q-30 -31 -77.5 -53t-97.5 -22q-203 0 -203 208v503l97 13v-503q0 -71 28 -103t90 -32q49 0 88 21.5z" />
    <glyph glyph-name="V" unicode="V" horiz-adv-x="562" 
d="M452 700h106l-229 -700h-93l-230 697l104 13l173 -593z" />
    <glyph glyph-name="W" unicode="W" horiz-adv-x="881" 
d="M108 710l148 -591l135 581h101l137 -581l143 581h104l-200 -700h-100l-136 569l-134 -569h-100l-200 697z" />
    <glyph glyph-name="X" unicode="X" horiz-adv-x="543" 
d="M335 355l205 -355h-122l-146 284l-146 -284h-122l204 353l-199 344l115 13l146 -287l145 277h121z" />
    <glyph glyph-name="Y" unicode="Y" horiz-adv-x="531" 
d="M6 697l109 13l152 -372l147 362h113l-212 -461v-239h-97v237z" />
    <glyph glyph-name="Z" unicode="Z" horiz-adv-x="526" 
d="M366 612h-324v88h439v-91l-333 -521h348v-88h-465v90z" />
    <glyph glyph-name="bracketleft" unicode="[" horiz-adv-x="269" 
d="M241 750v-82h-88v-696h88v-82h-173v860h173z" />
    <glyph glyph-name="backslash" unicode="\" horiz-adv-x="471" 
d="M464 -110l-77 -30l-379 890l77 32z" />
    <glyph glyph-name="bracketright" unicode="]" horiz-adv-x="269" 
d="M117 -28v696h-87v82h173v-860h-173v82h87z" />
    <glyph glyph-name="asciicircum" unicode="^" horiz-adv-x="381" 
d="M232 738l110 -211l-74 -27l-78 167l-77 -167l-73 27l110 211h82z" />
    <glyph glyph-name="underscore" unicode="_" horiz-adv-x="482" 
d="M475 -51v-70h-467v70h467z" />
    <glyph glyph-name="grave" unicode="`" horiz-adv-x="281" 
d="M211 638l-50 -32l-106 131l74 44z" />
    <glyph glyph-name="a" unicode="a" horiz-adv-x="511" 
d="M450.5 87q5.5 -33 21.5 -65l-79 -32q-18 27 -26 59q-28 -27 -68 -43t-82 -16q-86 0 -133.5 40t-47.5 120q0 86 49 122t141 36h127v64q0 62 -25.5 88.5t-80.5 26.5q-45 0 -73 -20t-36 -53l-87 25q14 57 66 94t130 37q97 0 148 -46.5t50 -137.5v-211q0 -55 5.5 -88zM156 87
q26 -21 71 -21q39 0 72 18t54 48v106h-124q-50 0 -74.5 -19.5t-24.5 -66.5q0 -44 26 -65z" />
    <glyph glyph-name="b" unicode="b" horiz-adv-x="538" 
d="M161 733l-1 -226q28 29 64.5 46t74.5 17q177 0 177 -200v-173q0 -97 -54.5 -152t-149.5 -55q-122 0 -204 56v674zM272 73q112 0 112 136v149q0 65 -23 96.5t-77 31.5q-34 0 -67.5 -22t-55.5 -51v-319q42 -21 111 -21z" />
    <glyph glyph-name="c" unicode="c" horiz-adv-x="495" 
d="M397.5 27q-49.5 -37 -128.5 -37q-96 0 -151.5 55t-55.5 152v166q0 97 55.5 152t151.5 55q78 0 129 -35.5t67 -97.5l-87 -25q-18 75 -109 75q-55 0 -84.5 -34.5t-29.5 -101.5v-142q0 -67 29.5 -101.5t84.5 -34.5q89 0 109 75l86 -23q-17 -61 -66.5 -98z" />
    <glyph glyph-name="d" unicode="d" horiz-adv-x="538" 
d="M393 48q-27 -27 -64.5 -42.5t-80.5 -15.5q-90 0 -137.5 54.5t-47.5 152.5v173q0 97 45.5 148.5t132.5 51.5q77 0 138 -28v178l93 13v-558q0 -57 5.5 -89.5t21.5 -63.5l-80 -32q-17 28 -26 58zM255 486q-52 0 -76 -31.5t-24 -96.5v-149q0 -69 24.5 -102.5t79.5 -33.5
q80 0 120 62v325q-56 26 -124 26z" />
    <glyph glyph-name="e" unicode="e" 
d="M117.5 515q55.5 55 151.5 55t151.5 -55t55.5 -152v-114h-321v-44q-1 -66 28.5 -99.5t85.5 -33.5q47 0 73.5 20t35.5 56l86 -23q-16 -61 -66.5 -98t-128.5 -37q-96 0 -151.5 55t-55.5 152v166q0 97 55.5 152zM383 354q0 66 -29 100t-85 34t-85.5 -34t-29.5 -100v-32h229
v32z" />
    <glyph glyph-name="f" unicode="f" horiz-adv-x="345" 
d="M161 560h149v-79h-149v-481h-93v481h-60v79h60v3q0 90 46.5 135.5t135.5 45.5q34 0 69 -13l-14 -71q-23 7 -47 7q-99 0 -97 -102v-5z" />
    <glyph glyph-name="g" unicode="g" horiz-adv-x="538" 
d="M472 26q0 -91 -54.5 -138.5t-147.5 -47.5q-92 0 -143.5 34t-56.5 99l87 15q6 -36 31.5 -50.5t81.5 -14.5q52 0 80.5 27t28.5 88v59q-28 -28 -63.5 -43t-74.5 -15q-90 0 -133.5 49.5t-43.5 147.5v134q0 97 45 148.5t132 51.5q76 0 143 -30l25 20h63v-534zM256 486
q-52 0 -76.5 -32t-24.5 -96l1 -110q-1 -64 22.5 -94.5t76.5 -30.5q34 0 67 17.5t58 45.5l-1 273q-55 27 -123 27z" />
    <glyph glyph-name="h" unicode="h" 
d="M161 733l-1 -226q29 29 64.5 46t74.5 17q89 0 130 -47t41 -142v-381h-92v368q0 63 -22 91.5t-75 28.5q-34 0 -66 -20.5t-55 -49.5v-418h-92v720z" />
    <glyph glyph-name="i" unicode="i" horiz-adv-x="227" 
d="M154.5 621q-15.5 -14 -42.5 -14q-56 0 -56 58q0 61 56 61q27 0 42.5 -15t15.5 -46q0 -30 -15.5 -44zM160 0h-92v481h-61v79h153v-560z" />
    <glyph glyph-name="j" unicode="j" horiz-adv-x="234" 
d="M64 665q0 60 55 60q57 0 57 -60q0 -57 -57 -57q-55 0 -55 57zM167 36q0 -92 -50 -141.5t-143 -54.5l-13 75q61 3 87 34.5t26 97.5v434h-61v79h154v-524z" />
    <glyph glyph-name="k" unicode="k" horiz-adv-x="486" 
d="M160 153v-153h-92v720l92 13v-438l202 265h116l-187 -239l200 -319l-102 -12l-157 254z" />
    <glyph glyph-name="l" unicode="l" horiz-adv-x="227" 
d="M76.5 56q-8.5 35 -8.5 87v577l93 13v-558q0 -57 5.5 -89.5t21.5 -63.5l-83 -32q-20 31 -28.5 66z" />
    <glyph glyph-name="m" unicode="m" horiz-adv-x="808" 
d="M337 455.5q-22 32.5 -60 32.5q-34 0 -65 -21t-51 -53v-414h-93v557l91 13v-66q26 30 60.5 48t73.5 18q46 0 78.5 -21.5t48.5 -60.5q53 82 152 82q83 0 125.5 -48.5t42.5 -144.5v-377h-91v362q0 64 -20.5 94.5t-68.5 30.5q-51 0 -80 -32t-29 -83v-372h-92v363
q0 60 -22 92.5z" />
    <glyph glyph-name="n" unicode="n" horiz-adv-x="537" 
d="M159 570v-66q28 29 65.5 47.5t75.5 18.5q88 0 129 -48.5t41 -144.5v-377h-92v364q0 64 -21.5 94t-73.5 30q-34 0 -67 -22t-55 -52v-414h-93v557z" />
    <glyph glyph-name="o" unicode="o" horiz-adv-x="536" 
d="M117.5 514.5q55.5 55.5 151.5 55.5t151.5 -55t55.5 -152v-166q0 -97 -55.5 -152t-151.5 -55t-151.5 55.5t-55.5 151.5v166q0 96 55.5 151.5zM184 107.5q29 -34.5 85 -34.5q55 0 84.5 34.5t29.5 101.5v142q0 67 -29.5 101.5t-84.5 34.5q-56 0 -85 -34.5t-29 -101.5v-142
q0 -67 29 -101.5z" />
    <glyph glyph-name="p" unicode="p" horiz-adv-x="538" 
d="M224 552.5q37 17.5 75 17.5q177 0 177 -200v-173q0 -97 -52.5 -152t-146.5 -55q-62 0 -116 17v-144l-93 -13v707l91 13v-64q28 29 65 46.5zM361 454.5q-23 31.5 -77 31.5q-34 0 -67.5 -21t-55.5 -50v-321q42 -21 111 -21q112 0 112 136v149q0 65 -23 96.5z" />
    <glyph glyph-name="q" unicode="q" horiz-adv-x="538" 
d="M378 -150v203q-27 -29 -63 -46t-75 -17q-90 0 -134 51t-44 149v173q0 97 54.5 152t150.5 55q120 0 204 -51v-656zM267 487q-112 0 -112 -136v-149q0 -65 23 -96.5t76 -31.5q33 0 67 22t57 51v320q-40 20 -111 20z" />
    <glyph glyph-name="r" unicode="r" horiz-adv-x="324" 
d="M159 570v-73q30 34 68.5 53.5t80.5 19.5l7 -86q-46 0 -86 -20.5t-68 -56.5v-407h-93v557z" />
    <glyph glyph-name="s" unicode="s" horiz-adv-x="471" 
d="M157.5 90q30.5 -22 78.5 -22q52 0 79.5 24t27.5 61v6q0 39 -29 56.5t-92 25.5q-174 22 -174 154v18q0 72 47.5 114.5t139.5 42.5q81 0 130 -36.5t61 -95.5l-85 -25q-12 79 -106 79q-49 0 -72 -22.5t-23 -60.5v-5q0 -36 27.5 -53.5t87.5 -26.5q87 -13 133.5 -45t46.5 -106
v-23q-1 -70 -53.5 -115t-145.5 -45q-83 0 -136 35.5t-68 94.5l87 25q8 -33 38.5 -55z" />
    <glyph glyph-name="t" unicode="t" horiz-adv-x="333" 
d="M13 481v79h59l20 90l69 13l1 -103h154v-79h-154l-1 -305q0 -62 16 -86t65 -24q16 0 38 2t35 6l14 -73q-18 -5 -47.5 -9.5t-48.5 -4.5q-90 0 -127 40.5t-37 137.5v316h-56z" />
    <glyph glyph-name="u" unicode="u" horiz-adv-x="527" 
d="M316.5 6.5q-39.5 -16.5 -81.5 -16.5q-170 0 -170 202v365l93 13v-367q0 -69 19.5 -100t69.5 -31q41 0 72.5 16.5t50.5 46.5v422l93 13v-395q0 -57 5.5 -89.5t21.5 -63.5l-80 -32q-15 22 -26 60q-28 -27 -67.5 -43.5z" />
    <glyph glyph-name="v" unicode="v" horiz-adv-x="473" 
d="M104 570l134 -459l130 449h100l-186 -560h-91l-185 557z" />
    <glyph glyph-name="w" unicode="w" horiz-adv-x="747" 
d="M101 570l116 -453l105 443h101l108 -441l113 441h98l-164 -560h-98l-108 440l-105 -440h-98l-163 557z" />
    <glyph glyph-name="x" unicode="x" horiz-adv-x="486" 
d="M305 288l178 -288h-119l-121 222l-120 -222h-119l177 286l-167 271l113 13l116 -218l112 208h119z" />
    <glyph glyph-name="y" unicode="y" horiz-adv-x="539" 
d="M194 -62.5q26 -14.5 80 -14.5q52 0 80.5 27t28.5 88v63q-29 -30 -66.5 -46t-78.5 -16q-171 0 -171 184l1 334l92 13v-326q-1 -63 22 -92t76 -29q35 0 68.5 18.5t53.5 45.5v370l93 13v-543q0 -91 -53 -139t-146 -48t-143 34t-57 99l88 15q6 -36 32 -50.5z" />
    <glyph glyph-name="z" unicode="z" horiz-adv-x="449" 
d="M296 479h-256v81h368v-79l-266 -400h278v-81h-386v86z" />
    <glyph glyph-name="braceleft" unicode="{" horiz-adv-x="338" 
d="M121.5 249.5q-21.5 26.5 -56.5 26.5h-29v88h29q35 0 56.5 26.5t21.5 77.5v138q0 76 34.5 110t102.5 34h15l10 -81h-9q-38 0 -51 -17t-13 -59v-131q0 -51 -18 -87.5t-53 -54.5q35 -17 53 -54.5t18 -88.5v-130q0 -42 13 -59t51 -17h9l-11 -81h-14q-68 0 -102.5 34.5
t-34.5 109.5v138q0 51 -21.5 77.5z" />
    <glyph glyph-name="bar" unicode="|" horiz-adv-x="217" 
d="M149 770v-940h-81v940h81z" />
    <glyph glyph-name="braceright" unicode="}" horiz-adv-x="338" 
d="M218.5 249.5q-21.5 -26.5 -21.5 -77.5v-138q0 -75 -34.5 -109.5t-102.5 -34.5h-14l-11 81h9q38 0 51 17t13 59v130q0 51 18 88.5t53 54.5q-35 18 -53 54.5t-18 87.5v131q0 42 -13 59t-51 17h-10l11 81h15q68 0 102.5 -34.5t34.5 -109.5v-138q0 -51 21.5 -77.5t55.5 -26.5
h29v-88h-29q-34 0 -55.5 -26.5z" />
    <glyph glyph-name="asciitilde" unicode="~" horiz-adv-x="572" 
d="M96.5 370.5q35.5 33.5 90.5 33.5q27 0 52 -9t65 -27q29 -14 48 -21.5t36 -7.5q25 0 40 16t19 42l74 -12q-7 -55 -41 -88t-93 -33q-27 0 -51 9t-59 26q-30 15 -50.5 23t-41.5 8q-26 0 -41 -16t-18 -42l-73 14q8 51 43.5 84.5z" />
    <glyph glyph-name="exclamdown" unicode="&#xa1;" horiz-adv-x="238" 
d="M82 615q-13 13 -13 39q0 28 13 42t36 14q25 0 38.5 -14t13.5 -42q0 -52 -52 -52q-23 0 -36 13zM82 525h75l9 -351v-174h-93v174z" />
    <glyph glyph-name="cent" unicode="&#xa2;" 
d="M114 145.5q-48 54.5 -48 143.5v122q0 89 48 143t132 62v84h56v-83q66 -7 109 -39.5t57 -84.5l-85 -24q-8 26 -28 43t-53 21v-367q35 5 56 23.5t28 46.5l85 -22q-14 -54 -57.5 -89t-111.5 -42v-83h-56v83q-84 8 -132 62.5zM180 492q-23 -34 -23 -92v-100q0 -58 22.5 -92
t66.5 -42v367q-43 -7 -66 -41z" />
    <glyph glyph-name="sterling" unicode="&#xa3;" horiz-adv-x="545" 
d="M91 133q21 38 21 83v87h-77v85h77v106q0 104 49.5 162t148.5 58q80 0 126 -36t60 -100l-90 -26q-14 75 -96 75q-56 0 -78.5 -35.5t-22.5 -109.5v-94h136v-85h-136v-72q0 -43 -11 -75t-25 -52t-14 -17h353v-87h-477v74q35 21 56 59z" />
    <glyph glyph-name="currency" unicode="&#xa4;" horiz-adv-x="576" 
d="M95 320v44q0 52 21 96l-67 72l59 62l66 -69q44 32 115 32q69 0 115 -32l66 69l59 -62l-69 -72q21 -40 21 -96v-44q0 -54 -21 -98l69 -71l-59 -62l-66 69q-46 -32 -115 -32q-71 0 -117 32l-64 -69l-59 62l67 71q-21 44 -21 98zM206.5 236q29.5 -32 82.5 -32q52 0 81.5 32
t29.5 93v25q0 62 -29.5 94t-81.5 32q-53 0 -82.5 -32t-29.5 -94v-25q0 -61 29.5 -93z" />
    <glyph glyph-name="yen" unicode="&#xa5;" horiz-adv-x="532" 
d="M220 173v73h-180v79h164l-195 372l103 13l157 -315l152 305h105l-195 -375h165v-79h-179v-73h179v-79h-179v-94h-97v94h-180v79h180z" />
    <glyph glyph-name="brokenbar" unicode="&#xa6;" horiz-adv-x="217" 
d="M149 770v-347h-81v347h81zM149 176v-346h-81v346h81z" />
    <glyph glyph-name="section" unicode="&#xa7;" horiz-adv-x="507" 
d="M182.5 1q26.5 -20 71.5 -20q49 0 72.5 22t23.5 58v8q0 31 -29.5 48.5t-83.5 28.5q-84 17 -135 53t-51 109v11q0 34 20 68t51 54q-27 18 -42.5 45t-15.5 62v13q0 69 46.5 111t136.5 42q75 0 119.5 -35t56.5 -91l-85 -24q-10 70 -91 70q-48 0 -68 -19.5t-20 -55.5v-9
q0 -34 30.5 -52t85.5 -29q81 -16 131.5 -50.5t50.5 -105.5v-13q0 -31 -23.5 -65.5t-54.5 -54.5q30 -18 47.5 -45.5t17.5 -63.5v-14q0 -68 -50 -112t-140 -44q-76 0 -126.5 35t-66.5 92l87 25q8 -32 34.5 -52zM163.5 268.5q17.5 -17.5 48.5 -28t90 -24.5q25 15 42.5 38.5
t17.5 44.5v6q0 40 -33 57.5t-90 28.5q-40 10 -43 11q-21 -12 -35.5 -34t-14.5 -47v-6q0 -29 17.5 -46.5z" />
    <glyph glyph-name="dieresis" unicode="&#xa8;" horiz-adv-x="407" 
d="M56 626.5q-13 15.5 -13 44.5q0 30 13 46t38 16q26 0 40 -16t14 -46q0 -29 -14 -44.5t-40 -15.5q-25 0 -38 15.5zM273.5 626.5q-13.5 15.5 -13.5 44.5q0 30 13.5 46t38.5 16q26 0 40 -16t14 -46q0 -29 -14 -44.5t-40 -15.5q-25 0 -38.5 15.5z" />
    <glyph glyph-name="copyright" unicode="&#xa9;" horiz-adv-x="683" 
d="M95 607.5q39 49.5 104.5 76t142.5 26.5t142 -26.5t104 -76t39 -115.5v-287q0 -67 -39 -116.5t-104 -76t-142 -26.5t-142.5 26.5t-104.5 76t-39 116.5v287q0 66 39 115.5zM157.5 125.5q30.5 -34.5 80 -52t104.5 -17.5q56 0 105 17.5t79.5 52t30.5 83.5v279
q0 48 -30.5 82.5t-80 52t-104.5 17.5t-104.5 -17.5t-80 -52t-30.5 -82.5v-279q0 -49 30.5 -83.5zM241 522.5q39 37.5 102 37.5q62 0 100 -33.5t38 -85.5l-69 -11q0 28 -19 44t-50 16q-32 0 -51 -19t-19 -55v-135q0 -36 19 -55t51 -19t50.5 16t18.5 44l69 -7q0 -53 -38 -88
t-100 -35q-63 0 -102 38t-39 101v146q0 63 39 100.5z" />
    <glyph glyph-name="ordfeminine" unicode="&#xaa;" horiz-adv-x="395" 
d="M318 278q-7 13 -10 25q-50 -43 -114 -43t-98.5 32.5t-34.5 95.5t40 92.5t111 29.5h92v40q0 47 -19 71t-59 24q-31 0 -51 -13.5t-27 -35.5l-67 27q14 39 52.5 64t93.5 25q74 0 113 -40t39 -113v-199q0 -47 20 -76l-66 -27q-8 8 -15 21zM207 448q-36 0 -54 -15.5t-18 -43.5
q0 -30 18 -46t49 -16q30 0 57.5 14t44.5 35v72h-97z" />
    <glyph glyph-name="guillemotleft" unicode="&#xab;" horiz-adv-x="419" 
d="M172 101l-142 149v59l142 149l44 -57l-112 -122l112 -121zM344 101l-142 149v59l142 149l45 -57l-113 -122l113 -121z" />
    <glyph glyph-name="logicalnot" unicode="&#xac;" horiz-adv-x="628" 
d="M571 442v-239h-89v152h-424v87h513z" />
    <glyph glyph-name="uni00AD" unicode="&#xad;" horiz-adv-x="381" 
d="M331 345v-86h-280v86h280z" />
    <glyph glyph-name="registered" unicode="&#xae;" horiz-adv-x="683" 
d="M95 607.5q39 49.5 104.5 76t142.5 26.5t142 -26.5t104 -76t39 -115.5v-287q0 -67 -39 -116.5t-104 -76t-142 -26.5t-142.5 26.5t-104.5 76t-39 116.5v287q0 66 39 115.5zM157.5 125.5q30.5 -34.5 80 -52t104.5 -17.5q56 0 105 17.5t79.5 52t30.5 83.5v279
q0 48 -30.5 82.5t-80 52t-104.5 17.5t-104.5 -17.5t-80 -52t-30.5 -82.5v-279q0 -49 30.5 -83.5zM355 552q63 0 98.5 -31t35.5 -90v-24q0 -41 -20 -70.5t-55 -41.5l90 -146l-87 -7l-82 144h-58v-141h-72v407h150zM400 364.5q17 15.5 17 49.5v9q0 35 -17 49.5t-51 14.5h-72
v-138h72q34 0 51 15.5z" />
    <glyph glyph-name="macron" unicode="&#xaf;" horiz-adv-x="379" 
d="M330 709v-86h-280v86h280z" />
    <glyph glyph-name="degree" unicode="&#xb0;" horiz-adv-x="345" 
d="M79.5 679.5q34.5 35.5 91.5 35.5q60 0 95 -35.5t35 -94.5v-16q0 -62 -34.5 -96t-95.5 -34q-58 0 -92 34.5t-34 95.5v16q0 59 34.5 94.5zM238 575q0 39 -16.5 58.5t-51.5 19.5q-61 0 -61 -78q0 -37 15.5 -57t45.5 -20q68 0 68 77z" />
    <glyph glyph-name="plusminus" unicode="&#xb1;" horiz-adv-x="577" 
d="M247 403v157h83v-157h190v-83h-190v-157h-83v157h-189v83h189zM520 113v-82h-462v82h462z" />
    <glyph glyph-name="uni00B2" unicode="&#xb2;" horiz-adv-x="409" 
d="M359 239h-307v49l183 207q22 26 31.5 45.5t9.5 38.5q0 28 -18 46t-52 18q-33 0 -51.5 -20.5t-21.5 -50.5l-72 21q8 51 45.5 84.5t99.5 33.5q71 0 108.5 -36t37.5 -95q0 -37 -19 -71.5t-51 -69.5l-116 -132h193v-68z" />
    <glyph glyph-name="uni00B3" unicode="&#xb3;" horiz-adv-x="402" 
d="M146.5 319q17.5 -20 50.5 -20q36 0 55.5 18.5t19.5 51.5v12q0 34 -12.5 54t-33.5 20h-72v60h71q20 0 31.5 22t11.5 44q0 27 -17.5 45.5t-49.5 18.5q-33 0 -49.5 -19t-19.5 -49l-71 21q8 50 44 81.5t96 31.5q68 0 104.5 -35.5t36.5 -92.5q0 -26 -10.5 -51.5t-29.5 -43.5
q21 -13 35 -42.5t14 -58.5v-19q0 -63 -41 -100.5t-113 -37.5q-61 0 -98 32.5t-45 83.5l73 24q2 -31 19.5 -51z" />
    <glyph glyph-name="acute" unicode="&#xb4;" horiz-adv-x="281" 
d="M220 737l-105 -131l-50 32l82 143z" />
    <glyph glyph-name="uni00B5" unicode="&#xb5;" horiz-adv-x="539" 
d="M475 197q0 -96 -52 -151.5t-140 -55.5q-33 0 -62.5 13t-50.5 39v-56q0 -36 -4 -66.5t-8.5 -48t-5.5 -21.5l-92 13q1 4 5.5 18.5t8.5 42t4 63.5v570l93 13l-1 -361q0 -136 107 -136q51 0 78.5 34.5t27.5 101.5v348l93 13z" />
    <glyph glyph-name="paragraph" unicode="&#xb6;" horiz-adv-x="561" 
d="M265 271q-94 0 -147 52t-53 149v27q0 97 53.5 149t154.5 52h221v-810h-62v737h-73v-737h-63v381h-31z" />
    <glyph glyph-name="periodcentered" unicode="&#xb7;" horiz-adv-x="194" 
d="M56.5 269q-14.5 15 -14.5 44q0 31 14.5 47t40.5 16t41.5 -16t15.5 -47q0 -29 -15.5 -44t-41.5 -15t-40.5 15z" />
    <glyph glyph-name="cedilla" unicode="&#xb8;" horiz-adv-x="257" 
d="M88 -120q18 0 29 7t11 20q0 15 -13 21.5t-27 7t-18 0.5l25 64h66l-12 -35q26 -4 43 -19t17 -42q0 -37 -29.5 -52.5t-71.5 -15.5q-34 0 -58 9l6 40q15 -5 32 -5z" />
    <glyph glyph-name="uni00B9" unicode="&#xb9;" horiz-adv-x="236" 
d="M45 566l-36 55l117 83h60v-461h-75v367z" />
    <glyph glyph-name="ordmasculine" unicode="&#xba;" horiz-adv-x="397" 
d="M91 672q40 40 108 40q69 0 108.5 -40t39.5 -109v-118q0 -68 -39.5 -107.5t-108.5 -39.5q-68 0 -108 40t-40 107v118q0 69 40 109zM141.5 384.5q19.5 -23.5 57.5 -23.5t58.5 23.5t20.5 69.5v101q0 46 -20.5 70t-58.5 24t-57.5 -24t-19.5 -70v-101q0 -46 19.5 -69.5z" />
    <glyph glyph-name="guillemotright" unicode="&#xbb;" horiz-adv-x="420" 
d="M143 279l-113 122l45 57l142 -149v-59l-142 -149l-45 57zM316 279l-113 122l45 57l142 -149v-59l-142 -149l-45 57z" />
    <glyph glyph-name="onequarter" unicode="&#xbc;" horiz-adv-x="785" 
d="M645 700l-478 -746l-65 46l474 744zM63 566l-36 55l116 83h60v-461h-75v367zM548 474l72 -12l-138 -308h129v158l75 13v-171h42v-67h-42v-87h-75v87h-222v47z" />
    <glyph glyph-name="onehalf" unicode="&#xbd;" horiz-adv-x="834" 
d="M158 -46l-66 46l475 744l69 -44zM63 566l-36 55l116 83h60v-461h-75v367zM774 0h-307v49l183 207q22 24 32 44t10 39q0 28 -18 46t-52 18t-52.5 -20t-21.5 -50l-72 20q8 51 45.5 85t100.5 34q70 0 108 -36.5t38 -95.5q0 -37 -19.5 -71.5t-50.5 -68.5l-116 -132h192v-68z
" />
    <glyph glyph-name="threequarters" unicode="&#xbe;" horiz-adv-x="890" 
d="M750 700l-478 -746l-66 46l474 744zM154.5 319q17.5 -20 51.5 -20q36 0 55 18.5t19 51.5v12q0 34 -12.5 54t-33.5 20h-72v60h71q21 0 32 21.5t11 44.5q0 27 -17 45.5t-50 18.5q-32 0 -49 -19.5t-20 -48.5l-71 21q8 50 44 81.5t96 31.5q68 0 104.5 -35.5t36.5 -92.5
q0 -26 -10.5 -51.5t-29.5 -43.5q21 -13 35 -42.5t14 -58.5v-19q0 -63 -40.5 -100.5t-112.5 -37.5q-62 0 -98.5 32.5t-45.5 83.5l73 24q2 -31 19.5 -51zM652 474l73 -12l-139 -308h130l-1 158l76 13v-171h41v-67h-41v-87h-75v87h-222v47z" />
    <glyph glyph-name="questiondown" unicode="&#xbf;" horiz-adv-x="491" 
d="M229 614.5q-15 14.5 -15 41.5t15.5 42t39.5 15t38.5 -14.5t14.5 -42.5q0 -27 -15 -41.5t-38 -14.5q-25 0 -40 14.5zM316 533v-36q0 -47 -10 -78t-27 -53t-51 -55l-18 -18q-31 -32 -45.5 -61t-14.5 -68v-8q0 -39 25 -62t77 -23q47 0 73 20t33 53l89 -25
q-16 -60 -65.5 -96.5t-129.5 -36.5q-96 0 -148.5 47t-52.5 121v16q0 60 23 100.5t69 85.5q45 45 62 73.5t17 69.5v34h94z" />
    <glyph glyph-name="Agrave" unicode="&#xc0;" horiz-adv-x="581" 
d="M330 775l-51 -32l-106 131l74 44zM171 195l-59 -195h-107l239 700h93l240 -697l-103 -13l-64 205h-239zM384 281l-94 303l-93 -303h187z" />
    <glyph glyph-name="Aacute" unicode="&#xc1;" horiz-adv-x="581" 
d="M413 877l-105 -131l-51 32l82 143zM171 195l-59 -195h-107l239 700h93l240 -697l-103 -13l-64 205h-239zM384 281l-94 303l-93 -303h187z" />
    <glyph glyph-name="Acircumflex" unicode="&#xc2;" horiz-adv-x="581" 
d="M329 881l70 -103l-68 -22l-41 72l-40 -72l-67 22l69 103h77zM171 195l-59 -195h-107l239 700h93l240 -697l-103 -13l-64 205h-239zM384 281l-94 303l-93 -303h187z" />
    <glyph glyph-name="Atilde" unicode="&#xc3;" horiz-adv-x="581" 
d="M151 853q25 28 66 28q21 0 41 -7t50 -20q36 -17 48 -17q33 0 36 37l67 -15q-4 -44 -27.5 -71t-67.5 -27q-18 0 -36.5 6t-43.5 18q-40 19 -59 19q-17 0 -25.5 -10t-8.5 -27l-69 16q4 42 29 70zM171 195l-59 -195h-107l239 700h93l240 -697l-103 -13l-64 205h-239zM384 281
l-94 303l-93 -303h187z" />
    <glyph glyph-name="Adieresis" unicode="&#xc4;" horiz-adv-x="581" 
d="M141 766.5q-13 15.5 -13 43.5q0 30 13 46.5t38 16.5q26 0 40.5 -16.5t14.5 -46.5q0 -28 -14.5 -43.5t-40.5 -15.5q-25 0 -38 15.5zM360 766.5q-13 15.5 -13 43.5q0 30 13 46.5t38 16.5q26 0 40 -16.5t14 -46.5q0 -28 -14 -43.5t-40 -15.5q-25 0 -38 15.5zM171 195
l-59 -195h-107l239 700h93l240 -697l-103 -13l-64 205h-239zM384 281l-94 303l-93 -303h187z" />
    <glyph glyph-name="Aring" unicode="&#xc5;" horiz-adv-x="581" 
d="M235 886.5q21 20.5 54 20.5q35 0 56.5 -20.5t21.5 -54.5v-10q0 -36 -21 -56t-57 -20q-34 0 -54.5 20.5t-20.5 55.5v10q0 34 21 54.5zM316 797q9 11 9 29q0 40 -36 40q-32 0 -32 -40q0 -18 8.5 -29t23.5 -11q18 0 27 11zM171 195l-59 -195h-107l239 700h93l240 -697
l-103 -13l-64 205h-239zM384 281l-94 303l-93 -303h187z" />
    <glyph glyph-name="AE" unicode="&#xc6;" horiz-adv-x="907" 
d="M865 700v-89h-299v-261h249v-88h-249v-174h306v-88h-403v235h-233l-116 -235h-118l364 700h499zM469 612h-50l-141 -288h191v288z" />
    <glyph glyph-name="Ccedilla" unicode="&#xc7;" horiz-adv-x="561" 
d="M190.5 113.5q36.5 -38.5 97.5 -38.5q47 0 80 20.5t47 57.5l92 -25q-17 -58 -65 -95.5t-119 -44.5l-8 -23q26 -4 42.5 -19t16.5 -42q0 -37 -29.5 -52.5t-70.5 -15.5q-34 0 -58 9l6 40q15 -5 32 -5q18 0 29 7t11 20q0 15 -13 21.5t-27 7t-18 0.5l20 52q-89 9 -144.5 68.5
t-55.5 151.5v284q0 67 30 117t82.5 77.5t119.5 27.5q85 0 143 -38t76 -104l-92 -25q-14 37 -47 57.5t-80 20.5q-61 0 -97.5 -38.5t-36.5 -107.5v-257q0 -70 36.5 -108.5z" />
    <glyph glyph-name="Egrave" unicode="&#xc8;" horiz-adv-x="498" 
d="M323 770l-50 -32l-106 131l73 44zM458 700v-89h-300v-210h250v-88h-250v-225h307v-88h-403v700h396z" />
    <glyph glyph-name="Eacute" unicode="&#xc9;" horiz-adv-x="498" 
d="M382 877l-106 -131l-50 33l82 143zM458 700v-89h-300v-211h250v-87h-250v-225h307v-88h-403v700h396z" />
    <glyph glyph-name="Ecircumflex" unicode="&#xca;" horiz-adv-x="498" 
d="M304 881l70 -103l-68 -22l-41 72l-40 -72l-67 22l69 103h77zM458 700v-89h-300v-210h250v-88h-250v-225h307v-88h-403v700h396z" />
    <glyph glyph-name="Edieresis" unicode="&#xcb;" horiz-adv-x="498" 
d="M109 766.5q-13 15.5 -13 44.5q0 30 13 46t38 16q26 0 40 -16t14 -46q0 -29 -14 -44.5t-40 -15.5q-25 0 -38 15.5zM326.5 766.5q-13.5 15.5 -13.5 44.5q0 30 13.5 46t38.5 16q26 0 39.5 -16t13.5 -46q0 -29 -14 -44.5t-39 -15.5t-38.5 15.5zM458 700v-89h-300v-210h250
v-88h-250v-225h307v-88h-404v700h397z" />
    <glyph glyph-name="Igrave" unicode="&#xcc;" horiz-adv-x="218" 
d="M161 772l-50 -32l-106 131l74 44zM158 700v-700h-96v700h96z" />
    <glyph glyph-name="Iacute" unicode="&#xcd;" horiz-adv-x="218" 
d="M224 867l-106 -131l-50 33l83 143zM158 700v-700h-96v700h96z" />
    <glyph glyph-name="Icircumflex" unicode="&#xce;" horiz-adv-x="218" 
d="M148 881l70 -103l-67 -22l-42 72l-40 -72l-67 22l69 103h77zM158 700v-700h-96v700h96z" />
    <glyph glyph-name="Idieresis" unicode="&#xcf;" horiz-adv-x="218" 
d="M-1 766.5q-13 15.5 -13 44.5q0 30 13 46t38 16q26 0 39.5 -16t13.5 -46q0 -29 -13.5 -44.5t-39.5 -15.5q-25 0 -38 15.5zM143.5 766.5q-12.5 15.5 -12.5 44.5q0 30 12.5 46t37.5 16q26 0 39.5 -16t13.5 -46q0 -29 -13.5 -44.5t-39.5 -15.5q-25 0 -37.5 15.5zM158 700
v-700h-97v700h97z" />
    <glyph glyph-name="Eth" unicode="&#xd0;" horiz-adv-x="582" 
d="M9 312v85h52v303h246q101 0 160 -60t59 -162v-256q0 -102 -59 -162t-160 -60h-246v312h-52zM397 126q31 38 31 109v230q0 71 -31 108.5t-90 37.5h-149v-214h148v-85h-148v-224h149q59 0 90 38z" />
    <glyph glyph-name="Ntilde" unicode="&#xd1;" horiz-adv-x="602" 
d="M161.5 853q25.5 28 65.5 28q22 0 43.5 -7.5t48.5 -20.5q5 -2 21 -9t26 -7q33 0 36 37l67 -15q-3 -44 -27 -71t-68 -27q-18 0 -35 5.5t-45 18.5q-40 19 -58 19q-33 0 -35 -37l-68 16q3 42 28.5 70zM166 700l282 -526l-2 526h96v-700h-106l-282 524l3 -524h-95v700h104z
" />
    <glyph glyph-name="Ograve" unicode="&#xd2;" horiz-adv-x="594" 
d="M348 775l-51 -32l-105 131l73 44zM89 609.5q32 50.5 87 77.5t123 27q67 0 122 -27t87 -77.5t32 -117.5v-284q0 -67 -32 -117.5t-87 -77.5t-122 -27q-68 0 -123 27t-87 77.5t-32 117.5v284q0 67 32 117.5zM195 113.5q41 -38.5 104 -38.5q62 0 102.5 39t40.5 108v257
q0 69 -40.5 107.5t-102.5 38.5q-63 0 -104 -38.5t-41 -107.5v-257q0 -70 41 -108.5z" />
    <glyph glyph-name="Oacute" unicode="&#xd3;" horiz-adv-x="594" 
d="M429 875l-105 -132l-50 33l82 142zM89 609.5q32 50.5 87 77.5t123 27q67 0 122 -27t87 -77.5t32 -117.5v-284q0 -67 -32 -117.5t-87 -77.5t-122 -27q-68 0 -123 27t-87 77.5t-32 117.5v284q0 67 32 117.5zM195 113.5q41 -38.5 104 -38.5q62 0 102.5 39t40.5 108v257
q0 69 -40.5 107.5t-102.5 38.5q-63 0 -104 -38.5t-41 -107.5v-257q0 -70 41 -108.5z" />
    <glyph glyph-name="Ocircumflex" unicode="&#xd4;" horiz-adv-x="594" 
d="M336 881l71 -103l-68 -22l-41 72l-40 -72l-67 22l69 103h76zM89 609.5q32 50.5 87 77.5t123 27q67 0 122 -27t87 -77.5t32 -117.5v-284q0 -67 -32 -117.5t-87 -77.5t-122 -27q-68 0 -123 27t-87 77.5t-32 117.5v284q0 67 32 117.5zM195 113.5q41 -38.5 104 -38.5
q62 0 102.5 39t40.5 108v257q0 69 -40.5 107.5t-102.5 38.5q-63 0 -104 -38.5t-41 -107.5v-257q0 -70 41 -108.5z" />
    <glyph glyph-name="Otilde" unicode="&#xd5;" horiz-adv-x="594" 
d="M159 853q25 28 66 28q22 0 43.5 -7.5t48.5 -20.5q5 -2 21 -9t26 -7q33 0 36 38l67 -16q-3 -43 -27 -70.5t-67 -27.5q-18 0 -35 5.5t-45 18.5q-40 20 -60 20q-32 0 -34 -38l-69 16q4 42 29 70zM89 609.5q32 50.5 87 77.5t123 27q67 0 122 -27t87 -77.5t32 -117.5v-284
q0 -67 -32 -117.5t-87 -77.5t-122 -27q-68 0 -123 27t-87 77.5t-32 117.5v284q0 67 32 117.5zM195 113.5q41 -38.5 104 -38.5q62 0 102.5 39t40.5 108v257q0 69 -40.5 107.5t-102.5 38.5q-63 0 -104 -38.5t-41 -107.5v-257q0 -70 41 -108.5z" />
    <glyph glyph-name="Odieresis" unicode="&#xd6;" horiz-adv-x="602" 
d="M153.5 767q-13.5 16 -13.5 44q0 30 13.5 46t37.5 16q26 0 40.5 -16t14.5 -46q0 -29 -14.5 -44.5t-40.5 -15.5q-24 0 -37.5 16zM371 766.5q-13 15.5 -13 44.5q0 30 13 46t38 16q26 0 40 -16t14 -46q0 -29 -14 -44.5t-40 -15.5q-25 0 -38 15.5zM92 609.5q32 50.5 87 77.5
t123 27q67 0 122 -27t87 -77.5t32 -117.5v-284q0 -67 -32 -117.5t-87 -77.5t-122 -27q-68 0 -123 27t-87 77.5t-32 117.5v284q0 67 32 117.5zM198 113.5q41 -38.5 104 -38.5t103.5 38.5t40.5 108.5v257q0 69 -40.5 107.5t-103.5 38.5t-104 -38.5t-41 -107.5v-257
q0 -70 41 -108.5z" />
    <glyph glyph-name="multiply" unicode="&#xd7;" horiz-adv-x="536" 
d="M42 456l56 59l170 -179l171 179l55 -59l-170 -179l170 -179l-55 -59l-171 179l-170 -179l-56 59l170 179z" />
    <glyph glyph-name="Oslash" unicode="&#xd8;" horiz-adv-x="594" 
d="M56 202v289q0 67 32 117.5t87.5 78t122.5 27.5q73 0 130.5 -32.5t85.5 -89.5l32 26l46 -77l-52 -45v-287q0 -67 -32 -117.5t-87.5 -78t-122.5 -27.5q-73 0 -130.5 32t-85.5 89l-32 -27l-47 78zM386 599q-37 26 -88 26q-63 0 -103.5 -38.5t-40.5 -108.5v-192l282 239
q-13 48 -50 74zM160 174q12 -47 50 -73t88 -26q63 0 103.5 38.5t40.5 108.5v192z" />
    <glyph glyph-name="Ugrave" unicode="&#xd9;" horiz-adv-x="580" 
d="M322 778l-50 -32l-106 131l73 44zM362.5 93.5q39.5 21.5 61.5 53.5v553h97v-517q0 -56 5.5 -89.5t21.5 -70.5l-86 -33q-11 18 -26 71q-29 -31 -76.5 -53t-97.5 -22q-203 0 -203 208v503l98 13v-503q0 -71 27.5 -103t89.5 -32q49 0 88.5 21.5z" />
    <glyph glyph-name="Uacute" unicode="&#xda;" horiz-adv-x="580" 
d="M415 877l-106 -131l-50 32l83 143zM362.5 93.5q39.5 21.5 61.5 53.5v553h97v-517q0 -56 5.5 -89.5t21.5 -70.5l-86 -33q-11 18 -26 71q-29 -31 -76.5 -53t-97.5 -22q-203 0 -203 208v503l98 13v-503q0 -71 27.5 -103t89.5 -32q49 0 88.5 21.5z" />
    <glyph glyph-name="Ucircumflex" unicode="&#xdb;" horiz-adv-x="580" 
d="M332 881l70 -103l-68 -22l-41 72l-40 -72l-68 22l70 103h77zM362.5 93.5q39.5 21.5 61.5 53.5v553h97v-517q0 -56 5.5 -89.5t21.5 -70.5l-86 -33q-11 18 -26 71q-29 -31 -76.5 -53t-97.5 -22q-203 0 -203 208v503l98 13v-503q0 -71 27.5 -103t89.5 -32q49 0 88.5 21.5z
" />
    <glyph glyph-name="Udieresis" unicode="&#xdc;" horiz-adv-x="580" 
d="M149 766.5q-13 15.5 -13 43.5q0 30 12.5 46.5t37.5 16.5q27 0 41 -16.5t14 -46.5q0 -28 -14 -43.5t-41 -15.5q-24 0 -37 15.5zM366 766.5q-13 15.5 -13 43.5q0 30 13 46.5t38 16.5q26 0 40 -16.5t14 -46.5q0 -28 -14 -43.5t-40 -15.5q-25 0 -38 15.5zM362.5 93.5
q39.5 21.5 61.5 53.5v553h97v-517q0 -56 5.5 -89.5t21.5 -70.5l-86 -33q-11 18 -26 71q-29 -31 -76.5 -53t-97.5 -22q-203 0 -203 208v503l98 13v-503q0 -71 27.5 -103t89.5 -32q49 0 88.5 21.5z" />
    <glyph glyph-name="Yacute" unicode="&#xdd;" horiz-adv-x="531" 
d="M381 877l-105 -131l-51 32l82 143zM6 697l109 13l152 -372l147 362h113l-212 -461v-239h-97v237z" />
    <glyph glyph-name="Thorn" unicode="&#xde;" horiz-adv-x="562" 
d="M158 700v-125h138q102 0 160.5 -54.5t58.5 -154.5v-32q0 -100 -58.5 -154.5t-160.5 -54.5h-138v-125h-97v700h97zM417 345v10q0 68 -30.5 99.5t-90.5 31.5h-138v-273h138q121 0 121 132z" />
    <glyph glyph-name="germandbls" unicode="&#xdf;" horiz-adv-x="559" 
d="M8 375v82h60v96q0 98 48.5 152.5t138.5 54.5q82 0 127 -38.5t46 -112.5q0 -39 -17 -65t-50 -59q-25 -24 -36.5 -39.5t-11.5 -35.5q0 -30 19.5 -51t62.5 -52q36 -25 59 -45.5t39.5 -51t16.5 -70.5q0 -70 -46.5 -112t-138.5 -42q-21 0 -48 4t-45 10l15 80q36 -11 74 -11
q40 0 66.5 18.5t26.5 52.5q0 29 -19.5 50.5t-61.5 51.5q-35 25 -57.5 45t-38 49t-15.5 68q0 42 15.5 66.5t45.5 52.5q25 23 37 41t12 45q0 69 -78 69q-49 0 -71 -34t-22 -102v-542h-93v375h-60z" />
    <glyph glyph-name="agrave" unicode="&#xe0;" horiz-adv-x="520" 
d="M306 638l-50 -32l-106 131l73 44zM459.5 87q5.5 -33 21.5 -65l-80 -32q-17 28 -25 59q-28 -27 -68 -43t-82 -16q-86 0 -133.5 40t-47.5 120q0 86 48.5 122t140.5 36h128v64q0 62 -25.5 88.5t-80.5 26.5q-45 0 -73.5 -20t-35.5 -52l-87 25q14 56 66.5 93t129.5 37
q97 0 148 -46.5t50 -137.5v-211q0 -55 5.5 -88zM165 86.5q26 -20.5 71 -20.5q40 0 73 18t53 48v106h-124q-51 0 -75 -20t-24 -68q0 -43 26 -63.5z" />
    <glyph glyph-name="aacute" unicode="&#xe1;" horiz-adv-x="520" 
d="M370 737l-105 -131l-50 32l82 143zM459.5 87q5.5 -33 21.5 -65l-80 -32q-17 28 -25 59q-28 -27 -68 -43t-82 -16q-86 0 -133.5 40t-47.5 120q0 86 48.5 122t140.5 36h128v64q0 62 -25.5 88.5t-80.5 26.5q-45 0 -73.5 -20t-35.5 -52l-87 25q14 56 66.5 93t129.5 37
q97 0 148 -46.5t50 -137.5v-211q0 -55 5.5 -88zM165 86.5q26 -20.5 71 -20.5q40 0 73 18t53 48v106h-124q-51 0 -75 -20t-24 -68q0 -43 26 -63.5z" />
    <glyph glyph-name="acircumflex" unicode="&#xe2;" horiz-adv-x="520" 
d="M295 741l70 -103l-68 -22l-41 72l-40 -72l-68 22l70 103h77zM459.5 87q5.5 -33 21.5 -65l-80 -32q-17 28 -25 59q-28 -27 -68 -43t-82 -16q-86 0 -133.5 40t-47.5 120q0 86 48.5 122t140.5 36h128v64q0 62 -25.5 88.5t-80.5 26.5q-45 0 -73.5 -20t-35.5 -52l-87 25
q14 56 66.5 93t129.5 37q97 0 148 -46.5t50 -137.5v-211q0 -55 5.5 -88zM165 86.5q26 -20.5 71 -20.5q40 0 73 18t53 48v106h-124q-51 0 -75 -20t-24 -68q0 -43 26 -63.5z" />
    <glyph glyph-name="atilde" unicode="&#xe3;" horiz-adv-x="520" 
d="M114.5 713q25.5 28 65.5 28q21 0 41 -7t50 -20q36 -17 48 -17q33 0 36 37l67 -15q-4 -44 -27.5 -71t-67.5 -27q-18 0 -36 6t-45 18q-20 10 -33 14.5t-24 4.5q-33 0 -36 -37l-68 16q4 42 29.5 70zM459.5 87q5.5 -33 21.5 -65l-80 -32q-17 28 -25 59q-28 -27 -68 -43
t-82 -16q-86 0 -133.5 40t-47.5 120q0 86 48.5 122t140.5 36h128v64q0 62 -25.5 88.5t-80.5 26.5q-45 0 -73.5 -20t-35.5 -52l-87 25q14 56 66.5 93t129.5 37q97 0 148 -46.5t50 -137.5v-211q0 -55 5.5 -88zM165 86.5q26 -20.5 71 -20.5q40 0 73 18t53 48v106h-124
q-51 0 -75 -20t-24 -68q0 -43 26 -63.5z" />
    <glyph glyph-name="adieresis" unicode="&#xe4;" horiz-adv-x="527" 
d="M115.5 626.5q-13.5 15.5 -14.5 43.5q0 30 13.5 46.5t38.5 16.5q26 0 40 -16.5t14 -46.5q0 -28 -14 -43.5t-40 -15.5q-24 0 -37.5 15.5zM322 626.5q-13 15.5 -13 43.5q0 30 13 46.5t38 16.5q26 0 40 -16.5t14 -46.5q0 -28 -14 -43.5t-40 -15.5q-25 0 -38 15.5zM459.5 87
q5.5 -33 21.5 -65l-80 -32q-17 28 -25 59q-28 -27 -68 -43t-82 -16q-86 0 -133.5 40t-47.5 120q0 86 48.5 122t140.5 36h128v64q0 62 -25.5 88.5t-80.5 26.5q-45 0 -73.5 -20t-35.5 -52l-87 25q14 56 66.5 93t129.5 37q97 0 148 -46.5t50 -137.5v-211q0 -55 5.5 -88z
M165 86.5q26 -20.5 71 -20.5q40 0 73 18t53 48v106h-124q-51 0 -75 -20t-24 -68q0 -43 26 -63.5z" />
    <glyph glyph-name="aring" unicode="&#xe5;" horiz-adv-x="527" 
d="M211 746.5q21 20.5 54 20.5q36 0 57.5 -20.5t21.5 -54.5v-10q0 -36 -21.5 -56t-57.5 -20q-34 0 -54.5 20.5t-20.5 55.5v10q0 34 21 54.5zM300 686q0 40 -35 40q-32 0 -32 -40q0 -18 8.5 -29t23.5 -11q35 0 35 40zM459.5 87q5.5 -33 21.5 -65l-80 -32q-17 28 -25 59
q-28 -27 -68 -43t-82 -16q-86 0 -133.5 40t-47.5 120q0 86 48.5 122t140.5 36h128v64q0 62 -25.5 88.5t-80.5 26.5q-45 0 -73.5 -20t-35.5 -52l-87 25q14 56 66.5 93t129.5 37q97 0 148 -46.5t50 -137.5v-211q0 -55 5.5 -88zM165 86.5q26 -20.5 71 -20.5q40 0 73 18t53 48
v106h-124q-51 0 -75 -20t-24 -68q0 -43 26 -63.5z" />
    <glyph glyph-name="ae" unicode="&#xe6;" horiz-adv-x="843" 
d="M706 26.5q-51 -36.5 -129 -36.5q-119 0 -171 82q-74 -82 -191 -82q-77 0 -120 45.5t-43 122.5q0 81 46 121t132 40h140v46q0 122 -106 122q-44 0 -72 -20t-36 -53l-87 25q15 57 66.5 94t128.5 37q53 0 92.5 -18.5t63.5 -53.5q25 35 65.5 53.5t91.5 18.5q96 0 151 -55
t55 -152v-114h-321v-43q0 -66 29.5 -100t85.5 -34q90 0 110 76l86 -23q-16 -62 -67 -98.5zM691 354q0 66 -29 100t-85 34q-55 0 -85 -33t-30 -96v-40h229v35zM238 248q-91 0 -91 -86q0 -43 23.5 -67.5t64.5 -24.5t77 19.5t58 47.5v111h-132z" />
    <glyph glyph-name="ccedilla" unicode="&#xe7;" horiz-adv-x="523" 
d="M184.5 107.5q29.5 -34.5 84.5 -34.5q89 0 109 75l86 -23q-14 -54 -55 -89.5t-105 -42.5l-9 -28q26 -3 43 -18.5t17 -42.5q0 -37 -29.5 -52.5t-71.5 -15.5q-35 0 -59 8l7 40q18 -4 30 -4q19 0 30.5 7t11.5 20q0 15 -13 21.5t-27 7t-18 0.5l22 56q-83 9 -129.5 63
t-46.5 142v166q0 97 55.5 152t151.5 55q78 0 129 -35.5t67 -97.5l-87 -25q-18 75 -109 75q-55 0 -84.5 -34.5t-29.5 -101.5v-142q0 -67 29.5 -101.5z" />
    <glyph glyph-name="egrave" unicode="&#xe8;" 
d="M308 638l-51 -32l-106 131l74 44zM117.5 514.5q55.5 55.5 151.5 55.5t151.5 -55t55.5 -152v-115h-321v-43q0 -66 29.5 -99.5t84.5 -33.5q90 0 110 76l85 -24q-16 -61 -66.5 -97.5t-128.5 -36.5q-96 0 -151.5 55.5t-55.5 151.5v166q0 96 55.5 151.5zM383 354q0 66 -29 100
t-85 34q-55 0 -85 -34t-30 -100v-32h229v32z" />
    <glyph glyph-name="eacute" unicode="&#xe9;" 
d="M396 737l-106 -131l-50 32l83 143zM117.5 514.5q55.5 55.5 151.5 55.5t151.5 -55t55.5 -152v-115h-321v-43q0 -66 29.5 -99.5t84.5 -33.5q90 0 110 76l85 -24q-16 -61 -66.5 -97.5t-128.5 -36.5q-96 0 -151.5 55.5t-55.5 151.5v166q0 96 55.5 151.5zM383 354
q0 66 -29 100t-85 34q-55 0 -85 -34t-30 -100v-32h229v32z" />
    <glyph glyph-name="ecircumflex" unicode="&#xea;" 
d="M309 741l70 -103l-68 -22l-41 72l-40 -72l-68 22l70 103h77zM117.5 514.5q55.5 55.5 151.5 55.5t151.5 -55t55.5 -152v-115h-321v-43q0 -66 29.5 -99.5t84.5 -33.5q90 0 110 76l85 -24q-16 -61 -66.5 -97.5t-128.5 -36.5q-96 0 -151.5 55.5t-55.5 151.5v166
q0 96 55.5 151.5zM383 354q0 66 -29 100t-85 34q-55 0 -85 -34t-30 -100v-32h229v32z" />
    <glyph glyph-name="edieresis" unicode="&#xeb;" 
d="M121.5 626.5q-13.5 15.5 -13.5 43.5q0 30 13 46.5t38 16.5q26 0 40.5 -16.5t14.5 -46.5q0 -28 -14.5 -43.5t-40.5 -15.5q-24 0 -37.5 15.5zM339 626.5q-13 15.5 -13 43.5q0 30 13 46.5t38 16.5q26 0 40 -16.5t14 -46.5q0 -28 -14 -43.5t-40 -15.5q-25 0 -38 15.5z
M117.5 514.5q55.5 55.5 151.5 55.5t151.5 -55t55.5 -152v-115h-321v-43q0 -66 29.5 -99.5t84.5 -33.5q90 0 110 76l85 -24q-16 -61 -66.5 -97.5t-128.5 -36.5q-96 0 -151.5 55.5t-55.5 151.5v166q0 96 55.5 151.5zM383 354q0 66 -29 100t-85 34q-55 0 -85 -34t-30 -100v-32
h229v32z" />
    <glyph glyph-name="igrave" unicode="&#xec;" horiz-adv-x="227" 
d="M153 638l-50 -32l-106 131l74 44zM160 0h-92v481h-61v79h153v-560z" />
    <glyph glyph-name="iacute" unicode="&#xed;" horiz-adv-x="227" 
d="M236 737l-105 -131l-50 32l82 143zM160 0h-92v481h-61v79h153v-560z" />
    <glyph glyph-name="icircumflex" unicode="&#xee;" horiz-adv-x="227" 
d="M153 741l69 -103l-67 -22l-41 72l-40 -72l-68 22l70 103h77zM160 0h-92v481h-61v79h153v-560z" />
    <glyph glyph-name="idieresis" unicode="&#xef;" horiz-adv-x="227" 
d="M-4 629q-13 15 -13 41q0 29 13 44.5t36 15.5q24 0 37.5 -15.5t13.5 -44.5q0 -26 -13.5 -41t-37.5 -15q-23 0 -36 15zM139 629q-13 15 -13 41q0 29 13 44.5t36 15.5q24 0 37.5 -15.5t13.5 -44.5q0 -26 -13.5 -41t-37.5 -15q-23 0 -36 15zM160 0h-92v481h-61v79h153v-560z
" />
    <glyph glyph-name="eth" unicode="&#xf0;" 
d="M108.5 483q46.5 49 135.5 49q38 0 74 -13t62 -35v26q0 47 -19 82l-57 -45l-42 55l45 36q-30 14 -64 14q-33 0 -58 -9l-21 77q41 15 83 15q80 0 132 -35l65 52l42 -55l-54 -45q17 -25 27.5 -57t10.5 -69v-332q0 -96 -54 -150t-152 -54q-93 0 -147.5 52.5t-54.5 147.5v148
q0 96 46.5 145zM178 104q28 -35 86 -35q59 0 87.5 35t28.5 106v184q-21 25 -56 42t-70 17q-56 0 -80 -32.5t-24 -102.5v-108q0 -71 28 -106z" />
    <glyph glyph-name="ntilde" unicode="&#xf1;" horiz-adv-x="537" 
d="M131.5 712.5q25.5 28.5 65.5 28.5q22 0 42 -7t50 -20q36 -17 48 -17q32 0 35 37l68 -15q-4 -44 -28 -71t-67 -27q-18 0 -36.5 6t-43.5 18q-40 19 -59 19q-32 0 -35 -37l-68 16q3 41 28.5 69.5zM160 570v-65q27 28 64.5 46.5t75.5 18.5q88 0 129 -48.5t41 -144.5v-377h-92
v364q0 64 -21 93.5t-74 29.5q-33 0 -66.5 -21.5t-56.5 -50.5v-415h-92v557z" />
    <glyph glyph-name="ograve" unicode="&#xf2;" horiz-adv-x="536" 
d="M314 638l-50 -32l-106 131l74 44zM117.5 514.5q55.5 55.5 151.5 55.5t151.5 -55t55.5 -152v-166q0 -97 -55.5 -152t-151.5 -55t-151.5 55.5t-55.5 151.5v166q0 96 55.5 151.5zM184.5 107.5q29.5 -34.5 84.5 -34.5q56 0 85 34.5t29 101.5v142q0 67 -29 101.5t-85 34.5
q-55 0 -84.5 -34.5t-29.5 -101.5v-142q0 -67 29.5 -101.5z" />
    <glyph glyph-name="oacute" unicode="&#xf3;" horiz-adv-x="536" 
d="M398 737l-106 -131l-50 32l82 143zM117.5 514.5q55.5 55.5 151.5 55.5t151.5 -55t55.5 -152v-166q0 -97 -55.5 -152t-151.5 -55t-151.5 55.5t-55.5 151.5v166q0 96 55.5 151.5zM184.5 107.5q29.5 -34.5 84.5 -34.5q56 0 85 34.5t29 101.5v142q0 67 -29 101.5t-85 34.5
q-55 0 -84.5 -34.5t-29.5 -101.5v-142q0 -67 29.5 -101.5z" />
    <glyph glyph-name="ocircumflex" unicode="&#xf4;" horiz-adv-x="536" 
d="M307 741l70 -103l-68 -22l-41 72l-40 -72l-68 22l70 103h77zM117.5 514.5q55.5 55.5 151.5 55.5t151.5 -55t55.5 -152v-166q0 -97 -55.5 -152t-151.5 -55t-151.5 55.5t-55.5 151.5v166q0 96 55.5 151.5zM184.5 107.5q29.5 -34.5 84.5 -34.5q56 0 85 34.5t29 101.5v142
q0 67 -29 101.5t-85 34.5q-55 0 -84.5 -34.5t-29.5 -101.5v-142q0 -67 29.5 -101.5z" />
    <glyph glyph-name="otilde" unicode="&#xf5;" horiz-adv-x="536" 
d="M129.5 713q25.5 28 66.5 28q21 0 41 -7t50 -20q14 -7 26.5 -12t20.5 -5q33 0 36 37l67 -15q-3 -44 -27 -71t-67 -27q-19 0 -37.5 6.5t-42.5 17.5q-22 10 -34.5 14.5t-24.5 4.5q-33 0 -35 -37l-68 16q3 42 28.5 70zM117.5 514.5q55.5 55.5 151.5 55.5t151.5 -55t55.5 -152
v-166q0 -97 -55.5 -152t-151.5 -55t-151.5 55.5t-55.5 151.5v166q0 96 55.5 151.5zM184.5 107.5q29.5 -34.5 84.5 -34.5q56 0 85 34.5t29 101.5v142q0 67 -29 101.5t-85 34.5q-55 0 -84.5 -34.5t-29.5 -101.5v-142q0 -67 29.5 -101.5z" />
    <glyph glyph-name="odieresis" unicode="&#xf6;" horiz-adv-x="536" 
d="M120.5 626.5q-13.5 15.5 -13.5 44.5q0 30 13.5 46t38.5 16q26 0 40 -16t14 -46q0 -28 -14 -44t-40 -16q-25 0 -38.5 15.5zM338.5 627q-13.5 16 -13.5 44q0 30 13.5 46t37.5 16q26 0 40 -16t14 -46q0 -29 -14 -44.5t-40 -15.5q-24 0 -37.5 16zM117.5 514.5
q55.5 55.5 151.5 55.5t151.5 -55t55.5 -152v-166q0 -97 -55.5 -152t-151.5 -55t-151.5 55.5t-55.5 151.5v166q0 96 55.5 151.5zM184 107.5q29 -34.5 85 -34.5q55 0 84.5 34.5t29.5 101.5v142q0 67 -29.5 101.5t-84.5 34.5q-56 0 -85 -34.5t-29 -101.5v-142q0 -67 29 -101.5z
" />
    <glyph glyph-name="divide" unicode="&#xf7;" horiz-adv-x="552" 
d="M231.5 463q-14.5 15 -14.5 44q0 31 14.5 47t40.5 16q27 0 42 -16t15 -47q0 -29 -15 -44t-42 -15q-26 0 -40.5 15zM508 323v-86h-464v86h464zM231.5 5q-14.5 15 -14.5 45q0 31 14.5 46.5t40.5 15.5q27 0 42 -15.5t15 -46.5q0 -30 -15 -45t-42 -15q-26 0 -40.5 15z" />
    <glyph glyph-name="oslash" unicode="&#xf8;" horiz-adv-x="536" 
d="M64 163q-2 11 -2 34v166q0 96 55.5 151.5t151.5 55.5q59 0 103 -22t69 -63l49 40l44 -77l-61 -52q3 -15 3 -33v-166q0 -97 -55.5 -152t-151.5 -55q-59 0 -103.5 22t-69.5 63l-45 -38l-47 75zM269 488q-56 0 -85.5 -35t-29.5 -102v-110l217 183q-26 64 -102 64zM166 135
q26 -63 103 -63q55 0 85 35t30 102v110z" />
    <glyph glyph-name="ugrave" unicode="&#xf9;" horiz-adv-x="527" 
d="M318 638l-50 -32l-107 131l74 44zM316.5 6.5q-39.5 -16.5 -81.5 -16.5q-170 0 -170 202v365l92 13v-367q0 -69 20 -100t70 -31q41 0 72.5 16.5t50.5 46.5v422l92 13v-395q0 -55 5.5 -88t21.5 -65l-79 -32q-15 22 -26 60q-28 -27 -67.5 -43.5z" />
    <glyph glyph-name="uacute" unicode="&#xfa;" horiz-adv-x="527" 
d="M381 737l-107 -131l-50 32l83 143zM316.5 6.5q-39.5 -16.5 -81.5 -16.5q-170 0 -170 202v365l92 13v-367q0 -69 20 -100t70 -31q41 0 72.5 16.5t50.5 46.5v422l92 13v-395q0 -55 5.5 -88t21.5 -65l-79 -32q-15 22 -26 60q-28 -27 -67.5 -43.5z" />
    <glyph glyph-name="ucircumflex" unicode="&#xfb;" horiz-adv-x="527" 
d="M302 741l70 -103l-68 -22l-41 72l-40 -72l-67 22l69 103h77zM316.5 6.5q-39.5 -16.5 -81.5 -16.5q-170 0 -170 202v365l92 13v-367q0 -69 20 -100t70 -31q41 0 72.5 16.5t50.5 46.5v422l92 13v-395q0 -55 5.5 -88t21.5 -65l-79 -32q-15 22 -26 60q-28 -27 -67.5 -43.5z
" />
    <glyph glyph-name="udieresis" unicode="&#xfc;" horiz-adv-x="527" 
d="M117.5 626.5q-13.5 15.5 -13.5 43.5q0 30 13.5 46.5t38.5 16.5q26 0 40 -16.5t14 -46.5q0 -28 -14.5 -43.5t-39.5 -15.5t-38.5 15.5zM335 626.5q-13 15.5 -13 43.5q0 30 13 46.5t38 16.5q26 0 40 -16.5t14 -46.5q0 -28 -14.5 -43.5t-39.5 -15.5t-38 15.5zM316.5 6.5
q-39.5 -16.5 -81.5 -16.5q-170 0 -170 202v365l92 13v-367q0 -69 20 -100t70 -31q41 0 72.5 16.5t50.5 46.5v422l92 13v-395q0 -55 5.5 -88t21.5 -65l-79 -32q-15 22 -26 60q-28 -27 -67.5 -43.5z" />
    <glyph glyph-name="yacute" unicode="&#xfd;" horiz-adv-x="539" 
d="M374 737l-105 -131l-51 32l82 143zM194 -62.5q26 -14.5 80 -14.5q53 0 81 27t28 88v63q-28 -30 -66.5 -46t-79.5 -16q-170 0 -169 184v334l92 13v-326q-1 -63 22 -92t76 -29q35 0 68.5 18.5t53.5 45.5v370l93 13v-543q0 -91 -53 -139t-146 -48t-143.5 34t-56.5 99l88 15
q6 -36 32 -50.5z" />
    <glyph glyph-name="thorn" unicode="&#xfe;" horiz-adv-x="539" 
d="M161 733v-226q28 29 64 46t74 17q178 0 178 -200v-180q0 -91 -53 -145.5t-144 -54.5q-74 0 -119 21v-151l-93 -13v873zM275 73q53 0 81 33.5t28 96.5l1 155q0 65 -23.5 97t-76.5 32q-34 0 -67.5 -22t-56.5 -52v-319q43 -21 114 -21z" />
    <glyph glyph-name="ydieresis" unicode="&#xff;" horiz-adv-x="539" 
d="M125 626.5q-13 15.5 -13 43.5q0 30 13 46.5t38 16.5q26 0 40 -16.5t14 -46.5q0 -28 -14 -43.5t-40 -15.5q-25 0 -38 15.5zM342.5 626.5q-13.5 15.5 -13.5 43.5q0 30 13.5 46.5t37.5 16.5q26 0 40 -16.5t14 -46.5q0 -28 -14 -43.5t-40 -15.5q-24 0 -37.5 15.5zM194 -62.5
q26 -14.5 80 -14.5q53 0 81 27t28 88v63q-28 -30 -66.5 -46t-79.5 -16q-170 0 -169 184v334l92 13v-326q-1 -63 22 -92t76 -29q35 0 68.5 18.5t53.5 45.5v370l93 13v-543q0 -91 -53 -139t-146 -48t-143.5 34t-56.5 99l88 15q6 -36 32 -50.5z" />
    <glyph glyph-name="Amacron" unicode="&#x100;" horiz-adv-x="581" 
d="M171 195l-60 -195h-107l240 700h94l239 -697l-103 -13l-64 205h-239zM384 281l-94 303l-93 -303h187zM431 849v-86h-280v86h280z" />
    <glyph glyph-name="amacron" unicode="&#x101;" horiz-adv-x="527" 
d="M401 709v-86h-280v86h280zM459.5 87q5.5 -33 21.5 -65l-80 -32q-17 28 -25 59q-28 -27 -68 -43t-82 -16q-86 0 -133.5 40t-47.5 120q0 86 48.5 122t140.5 36h128v64q0 62 -25.5 88.5t-80.5 26.5q-45 0 -73.5 -20t-35.5 -52l-87 25q14 56 66.5 93t129.5 37q97 0 148 -46.5
t50 -137.5v-211q0 -55 5.5 -88zM165 86.5q26 -20.5 71 -20.5q40 0 73 18t53 48v106h-124q-51 0 -75 -20t-24 -68q0 -43 26 -63.5z" />
    <glyph glyph-name="Abreve" unicode="&#x102;" horiz-adv-x="581" 
d="M171 195l-60 -195h-107l240 700h94l239 -697l-103 -13l-64 205h-239zM384 281l-94 303l-93 -303h187zM236 879q0 -30 14 -46.5t39 -16.5q28 0 43 16.5t15 46.5h66v-8q0 -57 -33.5 -88t-90.5 -31q-54 0 -87 31.5t-33 87.5v8h67z" />
    <glyph glyph-name="abreve" unicode="&#x103;" horiz-adv-x="527" 
d="M211 739q0 -30 14 -46.5t40 -16.5q28 0 42.5 16.5t14.5 46.5h67v-8q0 -57 -33.5 -88t-90.5 -31q-53 0 -86.5 31.5t-33.5 87.5v8h66zM459.5 87q5.5 -33 21.5 -65l-80 -32q-17 28 -25 59q-28 -27 -68 -43t-82 -16q-86 0 -133.5 40t-47.5 120q0 86 48.5 122t140.5 36h128v64
q0 62 -25.5 88.5t-80.5 26.5q-45 0 -73.5 -20t-35.5 -52l-87 25q14 56 66.5 93t129.5 37q97 0 148 -46.5t50 -137.5v-211q0 -55 5.5 -88zM165 86.5q26 -20.5 71 -20.5q40 0 73 18t53 48v106h-124q-51 0 -75 -20t-24 -68q0 -43 26 -63.5z" />
    <glyph glyph-name="Aogonek" unicode="&#x104;" horiz-adv-x="581" 
d="M171 195l-60 -195h-107l240 700h94l239 -697q-30 -15 -47.5 -35.5t-17.5 -41.5q0 -34 36 -34q24 0 37 3l9 -46q-32 -9 -67 -9q-41 0 -66 18t-25 56q0 21 12 41.5t31 35.5l-5 -1l-64 205h-239zM384 281l-94 303l-93 -303h187z" />
    <glyph glyph-name="aogonek" unicode="&#x105;" horiz-adv-x="521" 
d="M461.5 85.5q5.5 -32.5 21.5 -63.5q-44 -23 -68.5 -49t-24.5 -49q0 -16 11.5 -24.5t31.5 -8.5q12 0 32 4l7 -46q-21 -8 -59 -8q-43 0 -71 17t-28 54q0 28 20.5 55.5t55.5 46.5q-9 21 -13 35q-27 -27 -67.5 -43t-82.5 -16q-85 0 -132.5 40t-47.5 120q0 86 48.5 122
t140.5 36h127v64q1 61 -24.5 88t-81.5 27q-44 0 -72.5 -20t-36.5 -53l-87 25q15 57 67 94t129 37q97 0 148 -46.5t51 -137.5v-211q0 -57 5.5 -89.5zM239 238q-50 0 -74 -19.5t-25 -66.5q0 -44 26.5 -65t70.5 -21q40 0 73 18t53 48v106h-124z" />
    <glyph glyph-name="Cacute" unicode="&#x106;" horiz-adv-x="561" 
d="M412 876l-106 -131l-50 33l83 142zM190.5 113.5q36.5 -38.5 97.5 -38.5q47 0 80 20.5t46 57.5l93 -25q-18 -65 -76 -103.5t-143 -38.5q-67 0 -119.5 27.5t-82.5 78t-30 116.5v284q0 67 30 117t82.5 77.5t119.5 27.5q85 0 143 -38.5t76 -103.5l-93 -25q-13 37 -46 57.5
t-80 20.5q-61 0 -97.5 -38.5t-36.5 -107.5v-257q0 -70 36.5 -108.5z" />
    <glyph glyph-name="cacute" unicode="&#x107;" horiz-adv-x="523" 
d="M391 737l-106 -131l-50 32l82 143zM397.5 27q-49.5 -37 -128.5 -37q-96 0 -151.5 55t-55.5 152v166q0 97 55.5 152t151.5 55q78 0 129 -36t67 -98l-86 -24q-20 75 -110 75q-55 0 -84.5 -34.5t-29.5 -101.5v-142q0 -67 29.5 -101.5t84.5 -34.5q47 0 73.5 19.5t36.5 55.5
l85 -23q-17 -61 -66.5 -98z" />
    <glyph glyph-name="Ccircumflex" unicode="&#x108;" horiz-adv-x="561" 
d="M333 881l70 -103l-68 -22l-41 72l-40 -72l-68 22l70 103h77zM190.5 113.5q36.5 -38.5 97.5 -38.5q47 0 80 20.5t46 57.5l93 -25q-18 -65 -76 -103.5t-143 -38.5q-67 0 -119.5 27.5t-82.5 78t-30 116.5v284q0 67 30 117t82.5 77.5t119.5 27.5q85 0 143 -38.5t76 -103.5
l-93 -25q-13 37 -46 57.5t-80 20.5q-61 0 -97.5 -38.5t-36.5 -107.5v-257q0 -70 36.5 -108.5z" />
    <glyph glyph-name="ccircumflex" unicode="&#x109;" horiz-adv-x="523" 
d="M307 741l70 -103l-68 -22l-41 72l-40 -72l-67 22l69 103h77zM397.5 27q-49.5 -37 -128.5 -37q-96 0 -151.5 55t-55.5 152v166q0 97 55.5 152t151.5 55q78 0 129 -36t67 -98l-86 -24q-20 75 -110 75q-55 0 -84.5 -34.5t-29.5 -101.5v-142q0 -67 29.5 -101.5t84.5 -34.5
q47 0 73.5 19.5t36.5 55.5l85 -23q-17 -61 -66.5 -98z" />
    <glyph glyph-name="Cdotaccent" unicode="&#x10a;" horiz-adv-x="561" 
d="M250 768q-15 15 -15 45q0 31 15 46.5t41 15.5q27 0 42 -15.5t15 -46.5q0 -30 -15 -45t-42 -15q-26 0 -41 15zM190.5 113.5q36.5 -38.5 97.5 -38.5q47 0 80 20.5t46 57.5l93 -25q-18 -65 -76 -103.5t-143 -38.5q-67 0 -119.5 27.5t-82.5 78t-30 116.5v284q0 67 30 117
t82.5 77.5t119.5 27.5q85 0 143 -38.5t76 -103.5l-93 -25q-13 37 -46 57.5t-80 20.5q-61 0 -97.5 -38.5t-36.5 -107.5v-257q0 -70 36.5 -108.5z" />
    <glyph glyph-name="cdotaccent" unicode="&#x10b;" horiz-adv-x="532" 
d="M229.5 628q-14.5 15 -14.5 45q0 31 14.5 46.5t40.5 15.5q27 0 42.5 -15.5t15.5 -46.5q0 -30 -15.5 -45t-42.5 -15q-26 0 -40.5 15zM397.5 27q-49.5 -37 -128.5 -37q-96 0 -151.5 55t-55.5 152v166q0 97 55.5 152t151.5 55q78 0 129 -36t67 -98l-86 -24q-20 75 -110 75
q-55 0 -84.5 -34.5t-29.5 -101.5v-142q0 -67 29.5 -101.5t84.5 -34.5q47 0 73.5 19.5t36.5 55.5l85 -23q-17 -61 -66.5 -98z" />
    <glyph glyph-name="Ccaron" unicode="&#x10c;" horiz-adv-x="561" 
d="M244 891l46 -81l47 81l71 -18l-80 -117h-76l-78 115zM190.5 113.5q36.5 -38.5 97.5 -38.5q47 0 80 20.5t46 57.5l93 -25q-18 -65 -76 -103.5t-143 -38.5q-67 0 -119.5 27.5t-82.5 78t-30 116.5v284q0 67 30 117t82.5 77.5t119.5 27.5q85 0 143 -38.5t76 -103.5l-93 -25
q-13 37 -46 57.5t-80 20.5q-61 0 -97.5 -38.5t-36.5 -107.5v-257q0 -70 36.5 -108.5z" />
    <glyph glyph-name="ccaron" unicode="&#x10d;" horiz-adv-x="523" 
d="M226 751l46 -81l46 81l72 -18l-80 -117h-76l-78 115zM397.5 27q-49.5 -37 -128.5 -37q-96 0 -151.5 55t-55.5 152v166q0 97 55.5 152t151.5 55q78 0 129 -36t67 -98l-86 -24q-20 75 -110 75q-55 0 -84.5 -34.5t-29.5 -101.5v-142q0 -67 29.5 -101.5t84.5 -34.5
q47 0 73.5 19.5t36.5 55.5l85 -23q-17 -61 -66.5 -98z" />
    <glyph glyph-name="Dcaron" unicode="&#x10e;" horiz-adv-x="581" 
d="M242 892l46 -82l46 82l72 -19l-81 -117h-75l-78 116zM307 700q101 0 159.5 -60t58.5 -162v-256q0 -102 -58.5 -162t-159.5 -60h-245v700h245zM397 126q31 38 31 109v230q0 71 -31 108.5t-90 37.5h-149v-523h149q59 0 90 38z" />
    <glyph glyph-name="dcaron" unicode="&#x10f;" horiz-adv-x="538" 
d="M529 619.5q13 10.5 13 25.5q-20 12 -20 45q0 27 13.5 40.5t38.5 13.5q26 0 40.5 -13.5t14.5 -40.5q0 -43 -27 -81.5t-87 -49.5l-15 48q16 2 29 12.5zM393 48q-27 -27 -65 -42.5t-81 -15.5q-89 0 -136.5 54.5t-47.5 152.5v173q0 97 45.5 148.5t132.5 51.5q77 0 138 -28
v178l93 13v-558q0 -57 5.5 -89.5t21.5 -63.5l-80 -32q-16 23 -26 58zM255 486q-52 0 -76 -31.5t-24 -96.5v-149q1 -69 25 -102.5t79 -33.5q81 0 120 62v325q-55 26 -124 26z" />
    <glyph glyph-name="Dcroat" unicode="&#x110;" horiz-adv-x="582" 
d="M9 312v85h52v303h246q101 0 160 -60t59 -162v-256q0 -102 -59 -162t-160 -60h-246v312h-52zM397 126q31 38 31 109v230q0 71 -31 108.5t-90 37.5h-149v-214h148v-85h-148v-224h149q59 0 90 38z" />
    <glyph glyph-name="dcroat" unicode="&#x111;" horiz-adv-x="538" 
d="M472 175q0 -57 5.5 -89.5t21.5 -63.5l-80 -32q-17 28 -26 58q-27 -27 -64.5 -42.5t-80.5 -15.5q-90 0 -137.5 54.5t-47.5 152.5v173q0 97 45.5 148.5t132.5 51.5q77 0 138 -28v59h-81v72h81v47l93 13v-60h52v-72h-52v-426zM255 486q-52 0 -76 -31.5t-24 -96.5v-149
q0 -69 24.5 -102.5t79.5 -33.5q80 0 120 62v325q-56 26 -124 26z" />
    <glyph glyph-name="Emacron" unicode="&#x112;" horiz-adv-x="497" 
d="M399 849v-86h-280v86h280zM458 700v-89h-300v-210h250v-88h-250v-225h307v-88h-404v700h397z" />
    <glyph glyph-name="emacron" unicode="&#x113;" 
d="M408 709v-86h-281v86h281zM117.5 514.5q55.5 55.5 151.5 55.5t151.5 -55t55.5 -152v-115h-321v-43q0 -66 29.5 -99.5t84.5 -33.5q90 0 110 76l85 -24q-16 -61 -66.5 -97.5t-128.5 -36.5q-96 0 -151.5 55.5t-55.5 151.5v166q0 96 55.5 151.5zM383 354q0 66 -29 100t-85 34
q-55 0 -85 -34t-30 -100v-32h229v32z" />
    <glyph glyph-name="Ebreve" unicode="&#x114;" horiz-adv-x="497" 
d="M208 879q0 -30 14 -46.5t39 -16.5q28 0 42.5 16.5t14.5 46.5h67v-8q0 -57 -34 -88t-90 -31q-54 0 -87 31.5t-33 87.5v8h67zM458 700v-89h-300v-210h250v-88h-250v-225h307v-88h-404v700h397z" />
    <glyph glyph-name="ebreve" unicode="&#x115;" 
d="M218 739q0 -30 14 -46.5t39 -16.5q28 0 43 16.5t15 46.5h66v-8q0 -57 -34 -88t-90 -31q-54 0 -87 31.5t-33 87.5v8h67zM117.5 514.5q55.5 55.5 151.5 55.5t151.5 -55t55.5 -152v-115h-321v-43q0 -66 29.5 -99.5t84.5 -33.5q90 0 110 76l85 -24q-16 -61 -66.5 -97.5
t-128.5 -36.5q-96 0 -151.5 55.5t-55.5 151.5v166q0 96 55.5 151.5zM383 354q0 66 -29 100t-85 34q-55 0 -85 -34t-30 -100v-32h229v32z" />
    <glyph glyph-name="Edotaccent" unicode="&#x116;" horiz-adv-x="497" 
d="M223.5 768q-14.5 15 -14.5 44q0 31 14.5 47t40.5 16q27 0 42 -16t15 -47q0 -29 -15 -44t-42 -15q-26 0 -40.5 15zM458 700v-89h-300v-210h250v-88h-250v-225h307v-88h-404v700h397z" />
    <glyph glyph-name="edotaccent" unicode="&#x117;" 
d="M230.5 628q-14.5 15 -14.5 45q0 31 14.5 46.5t40.5 15.5q27 0 42 -15.5t15 -46.5q0 -30 -15 -45t-42 -15q-26 0 -40.5 15zM117.5 514.5q55.5 55.5 151.5 55.5t151.5 -55t55.5 -152v-115h-321v-43q0 -66 29.5 -99.5t84.5 -33.5q90 0 110 76l85 -24q-16 -61 -66.5 -97.5
t-128.5 -36.5q-96 0 -151.5 55.5t-55.5 151.5v166q0 96 55.5 151.5zM383 354q0 66 -29 100t-85 34q-55 0 -85 -34t-30 -100v-32h229v32z" />
    <glyph glyph-name="Eogonek" unicode="&#x118;" horiz-adv-x="497" 
d="M458 700v-89h-300v-209h250v-89h-250v-225h307v-88q-64 -32 -64 -76q0 -16 11 -24.5t31 -8.5q13 0 27 2l9 -45q-20 -7 -59 -7q-42 0 -69 17t-27 54q0 27 18.5 51.5t46.5 36.5h-328v700h397z" />
    <glyph glyph-name="eogonek" unicode="&#x119;" 
d="M155 205q0 -66 29 -99.5t85 -33.5q47 0 73.5 20t35.5 56l86 -23q-13 -50 -49 -84t-92 -46q-26 -15 -41 -33.5t-15 -39.5q0 -16 11 -24.5t31 -8.5q21 0 31 2l8 -45q-26 -8 -58 -8q-43 0 -71 17t-28 54q0 24 13.5 46.5t35.5 36.5q-84 8 -131 62t-47 143v166q0 97 55.5 152
t151.5 55t151.5 -55t55.5 -152v-114h-321v-44zM354 454q-29 34 -85 34t-85.5 -34t-29.5 -100v-32h229v32q0 66 -29 100z" />
    <glyph glyph-name="Ecaron" unicode="&#x11a;" horiz-adv-x="497" 
d="M213 891l45 -81l47 81l71 -18l-80 -117h-76l-78 115zM458 700v-89h-300v-210h250v-88h-250v-225h307v-88h-403v700h396z" />
    <glyph glyph-name="ecaron" unicode="&#x11b;" 
d="M224 751l46 -81l46 81l72 -18l-80 -117h-76l-78 115zM117.5 514.5q55.5 55.5 151.5 55.5t151.5 -55t55.5 -152v-115h-321v-43q0 -66 29.5 -99.5t84.5 -33.5q90 0 110 76l85 -24q-16 -61 -66.5 -97.5t-128.5 -36.5q-96 0 -151.5 55.5t-55.5 151.5v166q0 96 55.5 151.5z
M383 354q0 66 -29 100t-85 34q-55 0 -85 -34t-30 -100v-32h229v32z" />
    <glyph glyph-name="Gcircumflex" unicode="&#x11c;" horiz-adv-x="576" 
d="M334 881l70 -103l-68 -22l-41 72l-39 -72l-68 22l69 103h77zM355.5 5.5q-43.5 -19.5 -93.5 -19.5q-97 0 -151.5 59t-54.5 162v285q0 67 30 117t84 77.5t122 27.5q85 0 144 -38.5t76 -103.5l-92 -25q-13 36 -46.5 57t-81.5 21q-62 0 -100 -38.5t-38 -107.5v-258
q0 -71 33.5 -109.5t92.5 -38.5q42 0 80.5 19t64.5 55v141h-140v86h237v-384h-69l-20 68q-34 -33 -77.5 -52.5z" />
    <glyph glyph-name="gcircumflex" unicode="&#x11d;" horiz-adv-x="538" 
d="M315 741l71 -103l-68 -22l-41 72l-40 -72l-67 22l69 103h76zM472 26q0 -91 -54.5 -138.5t-147.5 -47.5q-92 0 -143.5 34t-56.5 99l87 15q7 -36 32 -50.5t81 -14.5q52 0 80.5 27t28.5 88v59q-28 -28 -63.5 -42.5t-74.5 -14.5q-90 0 -133.5 49t-43.5 147v134q0 97 45 148.5
t132 51.5q77 0 143 -30l24 20h64v-534zM256 486q-52 0 -76 -31.5t-24 -96.5v-110q0 -64 23 -94.5t76 -30.5q34 0 66.5 17.5t57.5 45.5v274q-55 26 -123 26z" />
    <glyph glyph-name="Gbreve" unicode="&#x11e;" horiz-adv-x="576" 
d="M237 879q0 -30 14 -46.5t40 -16.5q28 0 42.5 16.5t14.5 46.5h66v-8q0 -57 -33.5 -88t-89.5 -31q-54 0 -87 31t-33 88v8h66zM355.5 5.5q-43.5 -19.5 -93.5 -19.5q-97 0 -151.5 59t-54.5 162v285q0 67 30 117t84 77.5t122 27.5q85 0 144 -38.5t76 -103.5l-92 -25
q-13 36 -46.5 57t-81.5 21q-62 0 -100 -38.5t-38 -107.5v-258q0 -71 33.5 -109.5t92.5 -38.5q42 0 80.5 19t64.5 55v141h-140v86h237v-384h-69l-20 68q-34 -33 -77.5 -52.5z" />
    <glyph glyph-name="gbreve" unicode="&#x11f;" horiz-adv-x="538" 
d="M219 739q0 -30 13.5 -46.5t39.5 -16.5q28 0 42.5 16.5t14.5 46.5h67v-8q0 -57 -34 -88t-90 -31q-54 0 -87.5 31.5t-33.5 87.5v8h68zM472 26q0 -91 -54.5 -138.5t-147.5 -47.5q-92 0 -143.5 34t-56.5 99l87 15q7 -36 32 -50.5t81 -14.5q52 0 80.5 27t28.5 88v59
q-28 -28 -63.5 -42.5t-74.5 -14.5q-90 0 -133.5 49t-43.5 147v134q0 97 45 148.5t132 51.5q77 0 143 -30l24 20h64v-534zM256 486q-52 0 -76 -31.5t-24 -96.5v-110q0 -64 23 -94.5t76 -30.5q34 0 66.5 17.5t57.5 45.5v274q-55 26 -123 26z" />
    <glyph glyph-name="Gdotaccent" unicode="&#x120;" horiz-adv-x="576" 
d="M247 768q-15 15 -15 45t15 46t40 16q27 0 42.5 -15.5t15.5 -46.5q0 -30 -15.5 -45t-42.5 -15q-25 0 -40 15zM355.5 5.5q-43.5 -19.5 -93.5 -19.5q-97 0 -151.5 59t-54.5 162v285q0 67 30 117t84 77.5t122 27.5q85 0 144 -38.5t76 -103.5l-92 -25q-13 36 -46.5 57
t-81.5 21q-62 0 -100 -38.5t-38 -107.5v-258q0 -71 33.5 -109.5t92.5 -38.5q42 0 80.5 19t64.5 55v141h-140v86h237v-384h-69l-20 68q-34 -33 -77.5 -52.5z" />
    <glyph glyph-name="gdotaccent" unicode="&#x121;" horiz-adv-x="538" 
d="M227.5 627.5q-14.5 14.5 -14.5 42.5q0 32 14.5 48.5t39.5 16.5q27 0 42.5 -15.5t15.5 -46.5q0 -30 -15.5 -45t-42.5 -15q-25 0 -39.5 14.5zM472 26q0 -91 -54.5 -138.5t-147.5 -47.5q-92 0 -143.5 34t-56.5 99l87 15q7 -36 32 -50.5t81 -14.5q52 0 80.5 27t28.5 88v59
q-28 -28 -63.5 -42.5t-74.5 -14.5q-90 0 -133.5 49t-43.5 147v134q0 97 45 148.5t132 51.5q77 0 143 -30l24 20h64v-534zM256 486q-52 0 -76 -31.5t-24 -96.5v-110q0 -64 23 -94.5t76 -30.5q34 0 66.5 17.5t57.5 45.5v274q-55 26 -123 26z" />
    <glyph glyph-name="Gcommaaccent" unicode="&#x122;" horiz-adv-x="576" 
d="M355.5 5.5q-43.5 -19.5 -93.5 -19.5q-97 0 -151.5 59t-54.5 162v285q0 67 30 117t84 77.5t122 27.5q85 0 144 -38.5t76 -103.5l-92 -25q-13 36 -46.5 57t-81.5 21q-62 0 -100 -38.5t-38 -107.5v-258q0 -71 33.5 -109.5t92.5 -38.5q42 0 80.5 19t64.5 55v141h-140v86h237
v-384h-69l-20 68q-34 -33 -77.5 -52.5zM252 -170.5q13 10.5 13 25.5q-20 12 -20 45q0 27 13.5 41t38.5 14q26 0 40.5 -14t14.5 -41q0 -43 -27 -81.5t-88 -48.5l-14 47q16 2 29 12.5z" />
    <glyph glyph-name="gcommaaccent" unicode="&#x123;" horiz-adv-x="538" 
d="M318 731.5q-13 -10.5 -14 -25.5q20 -11 20 -45q0 -27 -13.5 -41t-38.5 -14q-26 0 -40.5 14t-14.5 41q0 43 27.5 81.5t87.5 48.5l14 -47q-15 -2 -28 -12.5zM472 26q0 -91 -54.5 -138.5t-147.5 -47.5q-92 0 -143.5 34t-56.5 99l87 15q7 -36 32 -50.5t81 -14.5q52 0 80.5 27
t28.5 88v59q-28 -28 -63.5 -42.5t-74.5 -14.5q-90 0 -133.5 49t-43.5 147v134q0 97 45 148.5t132 51.5q77 0 143 -30l24 20h64v-534zM256 486q-52 0 -76 -31.5t-24 -96.5v-110q0 -64 23 -94.5t76 -30.5q34 0 66.5 17.5t57.5 45.5v274q-55 26 -123 26z" />
    <glyph glyph-name="Hcircumflex" unicode="&#x124;" horiz-adv-x="585" 
d="M331 881l71 -103l-68 -22l-41 72l-40 -72l-67 22l69 103h76zM158 700v-300h270v300h97v-700h-97v312h-270v-312h-96v700h96z" />
    <glyph glyph-name="hcircumflex" unicode="&#x125;" 
d="M357 739l64 -104l-65 -22l-38 72l-38 -72l-64 22l64 104h77zM161 733l-1 -226q61 63 137 63q89 0 131 -47.5t42 -141.5v-381h-92v368q0 63 -21.5 90.5t-75.5 27.5q-34 0 -66.5 -19.5t-54.5 -48.5v-418h-92v720z" />
    <glyph glyph-name="Hbar" unicode="&#x126;" horiz-adv-x="585" 
d="M20 521v83h41v96h97v-96h270v96h97v-96h41v-83h-41v-521h-97v303h-270v-303h-97v521h-41zM428 521h-270v-129h270v129z" />
    <glyph glyph-name="hbar" unicode="&#x127;" 
d="M17 597v74h51v49l93 13v-62h79v-74h-79l-1 -90q61 63 137 63q89 0 131 -47.5t42 -141.5v-381h-92v368q0 63 -21.5 90.5t-75.5 27.5q-34 0 -66.5 -19.5t-54.5 -48.5v-418h-92v597h-51z" />
    <glyph glyph-name="Itilde" unicode="&#x128;" horiz-adv-x="218" 
d="M4 846.5q17 26.5 54 26.5q18 0 32.5 -6.5t30.5 -17.5q9 -6 17.5 -10.5t15.5 -4.5q21 0 25 33l54 -12q-2 -94 -69 -94q-20 0 -34 6.5t-33 18.5q-8 5 -16 9.5t-15 4.5q-20 0 -24 -33l-55 11q0 42 17 68.5zM158 700v-700h-97v700h97z" />
    <glyph glyph-name="itilde" unicode="&#x129;" horiz-adv-x="227" 
d="M-9 706.5q17 26.5 53 26.5q19 0 33.5 -6.5t30.5 -17.5q23 -15 33 -15q22 0 24 33l55 -12q-4 -94 -69 -94q-20 0 -34.5 6.5t-31.5 18.5q-3 2 -13 8t-18 6q-13 0 -18.5 -9t-7.5 -24l-54 12q0 41 17 67.5zM160 0h-92v481h-61v79h153v-560z" />
    <glyph glyph-name="Imacron" unicode="&#x12a;" horiz-adv-x="218" 
d="M215 849v-86h-210v86h210zM158 700v-700h-97v700h97z" />
    <glyph glyph-name="imacron" unicode="&#x12b;" horiz-adv-x="227" 
d="M220 709v-86h-212v86h212zM160 0h-92v481h-61v79h153v-560z" />
    <glyph glyph-name="Ibreve" unicode="&#x12c;" horiz-adv-x="218" 
d="M62 879q0 -63 46 -63q51 0 51 63h66v-8q0 -57 -31 -88t-86 -31q-53 0 -83 31t-30 88v8h67zM158 700v-700h-97v700h97z" />
    <glyph glyph-name="Iogonek" unicode="&#x12e;" horiz-adv-x="218" 
d="M165 -105l8 -46q-24 -8 -58 -8q-43 0 -71.5 17t-28.5 54q0 27 20.5 51.5t49.5 36.5h-24v700h97v-700q-65 -31 -65 -76q0 -16 11 -24.5t31 -8.5q10 0 30 4z" />
    <glyph glyph-name="iogonek" unicode="&#x12f;" horiz-adv-x="227" 
d="M153 622q-15 -14 -42 -14q-56 0 -56 58q0 61 56 61q27 0 42 -15t15 -46q0 -30 -15 -44zM98 -76q0 -16 11 -24.5t31 -8.5q16 0 28 3l9 -45q-24 -8 -60 -8q-43 0 -70 17t-27 54q0 26 19.5 51.5t48.5 41.5h-20v476h-61v79h153v-563q-62 -32 -62 -73z" />
    <glyph glyph-name="Idotaccent" unicode="&#x130;" horiz-adv-x="218" 
d="M68 768q-15 15 -15 44q0 31 15 47t41 16t41.5 -16t15.5 -47q0 -29 -15.5 -44t-41.5 -15t-41 15zM158 700v-700h-97v700h97z" />
    <glyph glyph-name="dotlessi" unicode="&#x131;" horiz-adv-x="227" 
d="M160 0h-92v481h-61v79h153v-560z" />
    <glyph glyph-name="IJ" unicode="&#x132;" horiz-adv-x="503" 
d="M158 700v-700h-96v700h96zM346 226v474h97v-489q0 -95 -55.5 -154t-150.5 -67l-13 84q122 15 122 152z" />
    <glyph glyph-name="ij" unicode="&#x133;" horiz-adv-x="455" 
d="M341 610q-25 0 -40.5 14.5t-15.5 43.5q0 30 15.5 45t40.5 15q57 0 57 -60q0 -58 -57 -58zM112 725q26 0 41.5 -14.5t15.5 -45.5q0 -29 -15.5 -43t-41.5 -14q-56 0 -56 57q0 60 56 60zM163 0h-93v481h-61v79h154v-560zM390 36q0 -92 -50 -141.5t-143 -54.5l-13 75
q61 3 87 34.5t26 97.5v434h-61v79h154v-524z" />
    <glyph glyph-name="Jcircumflex" unicode="&#x134;" horiz-adv-x="286" 
d="M213 881l70 -103l-68 -22l-41 72l-40 -72l-67 22l69 103h77zM99 119q31 37 31 107v474h96v-489q0 -95 -55.5 -154t-150.5 -67l-13 84q61 8 92 45z" />
    <glyph glyph-name="jcircumflex" unicode="&#x135;" horiz-adv-x="229" 
d="M144 741l71 -103l-69 -22l-40 72l-41 -72l-67 22l69 103h77zM163 36q0 -92 -49.5 -141.5t-143.5 -54.5l-12 75q61 3 86.5 34.5t25.5 97.5v434h-61v79h154v-524z" />
    <glyph glyph-name="Kcommaaccent" unicode="&#x136;" horiz-adv-x="533" 
d="M158 201v-201h-96v700h96v-344l253 344h118l-231 -311l238 -386l-106 -13l-192 318zM234 -170.5q13 10.5 13 25.5q-20 12 -20 45q0 27 14 41t38 14q26 0 40.5 -14t14.5 -41q0 -43 -27 -81.5t-87 -48.5l-15 47q16 2 29 12.5z" />
    <glyph glyph-name="kcommaaccent" unicode="&#x137;" horiz-adv-x="486" 
d="M160 153v-153h-92v720l92 13v-438l202 265h115l-187 -239l201 -319l-102 -12l-158 255zM221 -172q12 11 13 28q-21 13 -21 44q0 28 14 41.5t38 13.5q55 0 55 -55q0 -42 -26.5 -81.5t-85.5 -51.5l-16 48q17 2 29 13z" />
    <glyph glyph-name="kgreenlandic" unicode="&#x138;" horiz-adv-x="486" 
d="M160 154v-154h-92v560l92 13v-278l202 265h116l-187 -239l200 -319l-102 -12l-157 254z" />
    <glyph glyph-name="Lacute" unicode="&#x139;" horiz-adv-x="472" 
d="M237 871l-106 -131l-50 33l83 142zM158 700v-612h305v-88h-401v700h96z" />
    <glyph glyph-name="lacute" unicode="&#x13a;" horiz-adv-x="227" 
d="M244 896l-105 -132l-51 32l83 144zM76.5 56q-8.5 35 -8.5 86v578l92 13v-558q0 -55 5.5 -88t21.5 -65l-82 -32q-20 31 -28.5 66z" />
    <glyph glyph-name="Lcommaaccent" unicode="&#x13b;" horiz-adv-x="472" 
d="M158 700v-612h305v-88h-401v700h96zM210 -170.5q13 10.5 14 25.5q-20 11 -20 45q0 27 13.5 41t38.5 14q26 0 40.5 -14t14.5 -41q0 -43 -27.5 -81.5t-87.5 -48.5l-14 47q15 2 28 12.5z" />
    <glyph glyph-name="lcommaaccent" unicode="&#x13c;" horiz-adv-x="227" 
d="M76.5 56q-8.5 35 -8.5 86v578l92 13v-558q0 -55 5.5 -88t21.5 -65l-82 -32q-20 31 -28.5 66zM78.5 -172q12.5 11 13.5 28q-21 12 -21 44q0 28 14 41.5t39 13.5q54 0 54 -55q0 -42 -26.5 -81.5t-85.5 -51.5l-16 48q16 2 28.5 13z" />
    <glyph glyph-name="Lcaron" unicode="&#x13d;" horiz-adv-x="472" 
d="M287 628.5q13 10.5 13 25.5q-20 12 -20 45q0 27 14 40.5t39 13.5q26 0 40.5 -13.5t14.5 -40.5q0 -43 -27.5 -81.5t-87.5 -49.5l-14 48q15 2 28 12.5zM158 700v-612h305v-88h-401v700h96z" />
    <glyph glyph-name="lcaron" unicode="&#x13e;" horiz-adv-x="227" 
d="M221 653q12 11 13 27q-21 12 -21 44q0 55 52 55q55 0 55 -55q0 -42 -26.5 -81t-85.5 -52l-16 48q17 3 29 14zM76.5 56q-8.5 35 -8.5 86v578l92 13v-558q0 -55 5.5 -88t21.5 -65l-82 -32q-20 31 -28.5 66z" />
    <glyph glyph-name="Ldot" unicode="&#x13f;" horiz-adv-x="472" 
d="M158 700v-612h305v-88h-402v700h97zM316.5 354q-14.5 15 -14.5 44q0 31 14.5 47t40.5 16t41.5 -16t15.5 -47q0 -29 -15.5 -44t-41.5 -15t-40.5 15z" />
    <glyph glyph-name="ldot" unicode="&#x140;" horiz-adv-x="372" 
d="M76.5 56q-8.5 35 -8.5 86v578l92 13v-558q0 -55 5.5 -88t21.5 -65l-82 -32q-20 31 -28.5 66zM243.5 280q-14.5 15 -14.5 44q0 62 55 62q27 0 42 -15t15 -47q0 -29 -15.5 -44t-41.5 -15t-40.5 15z" />
    <glyph glyph-name="Lslash" unicode="&#x141;" horiz-adv-x="472" 
d="M34 271l-28 85l55 24v320h97v-276l103 47l32 -82l-135 -61v-240h305v-88h-402v284z" />
    <glyph glyph-name="lslash" unicode="&#x142;" horiz-adv-x="227" 
d="M166.5 85.5q5.5 -32.5 21.5 -63.5l-83 -32q-20 31 -28.5 66t-8.5 87v149l-39 -17l-25 82l64 27v336l93 13v-313l37 16l26 -80l-63 -27v-154q0 -57 5.5 -89.5z" />
    <glyph glyph-name="Nacute" unicode="&#x143;" horiz-adv-x="602" 
d="M419 877l-105 -132l-50 33l82 142zM166 700l282 -526l-2 526h96v-700h-106l-282 524l3 -524h-95v700h104z" />
    <glyph glyph-name="nacute" unicode="&#x144;" horiz-adv-x="537" 
d="M393 737l-106 -131l-50 32l83 143zM160 570v-65q27 28 64.5 46.5t75.5 18.5q88 0 129 -48.5t41 -144.5v-377h-92v364q0 64 -21 93.5t-74 29.5q-33 0 -66.5 -21.5t-56.5 -50.5v-415h-92v557z" />
    <glyph glyph-name="Ncommaaccent" unicode="&#x145;" horiz-adv-x="602" 
d="M166 700l282 -526l-2 526h96v-700h-106l-282 524l3 -524h-95v700h104zM265 -170.5q13 10.5 14 25.5q-10 6 -15.5 18t-5.5 27q0 27 14 41t39 14q26 0 40.5 -14t14.5 -41q0 -43 -27 -81.5t-88 -48.5l-14 47q15 2 28 12.5z" />
    <glyph glyph-name="ncommaaccent" unicode="&#x146;" horiz-adv-x="537" 
d="M160 570v-65q27 28 64.5 46.5t75.5 18.5q88 0 129 -48.5t41 -144.5v-377h-92v364q0 64 -21 93.5t-74 29.5q-33 0 -66.5 -21.5t-56.5 -50.5v-415h-92v557zM224 -172q12 11 13 28q-20 12 -20 44q0 28 14 41.5t38 13.5q54 0 54 -55q0 -43 -26 -82t-85 -51l-17 48q17 2 29 13
z" />
    <glyph glyph-name="Ncaron" unicode="&#x147;" horiz-adv-x="602" 
d="M256 891l45 -81l47 81l71 -18l-79 -117h-76l-78 115zM166 700l282 -526l-2 526h96v-700h-106l-282 524l3 -524h-95v700h104z" />
    <glyph glyph-name="ncaron" unicode="&#x148;" horiz-adv-x="537" 
d="M230 751l46 -81l46 81l72 -18l-80 -117h-76l-78 115zM160 570v-65q27 28 64.5 46.5t75.5 18.5q88 0 129 -48.5t41 -144.5v-377h-92v364q0 64 -21 93.5t-74 29.5q-33 0 -66.5 -21.5t-56.5 -50.5v-415h-92v557z" />
    <glyph glyph-name="napostrophe" unicode="&#x149;" horiz-adv-x="537" 
d="M-19 644.5q13 10.5 13 25.5q-20 14 -20 45q0 27 13.5 41t38.5 14q26 0 40.5 -13.5t14.5 -41.5q0 -42 -27 -80.5t-88 -49.5l-14 47q16 2 29 12.5zM160 570v-65q27 28 64.5 46.5t75.5 18.5q88 0 129 -48.5t41 -144.5v-377h-92v364q0 64 -21 93.5t-74 29.5
q-33 0 -66.5 -21.5t-56.5 -50.5v-415h-92v557z" />
    <glyph glyph-name="Eng" unicode="&#x14a;" horiz-adv-x="602" 
d="M165 700l284 -526l-3 526h96v-700q1 -170 -168 -180l-16 75q44 5 67 28t23 70v7h-12l-282 524l3 -524h-96v700h104z" />
    <glyph glyph-name="eng" unicode="&#x14b;" horiz-adv-x="537" 
d="M424.5 -138q-45.5 -43 -140.5 -43l-14 79q51 0 79.5 26t28.5 77v363q0 64 -21.5 94t-73.5 30q-34 0 -67 -22t-55 -52v-414h-93v557l91 13v-66q28 29 65.5 47.5t75.5 18.5q88 0 129 -48.5t41 -144.5v-377q0 -95 -45.5 -138z" />
    <glyph glyph-name="Omacron" unicode="&#x14c;" horiz-adv-x="594" 
d="M438 849v-86h-280v86h280zM88 609.5q32 50.5 87.5 77.5t122.5 27t122.5 -27t87.5 -77.5t32 -117.5v-284q0 -67 -32 -117.5t-87.5 -77.5t-122.5 -27t-122.5 27t-87.5 77.5t-32 117.5v284q0 67 32 117.5zM194.5 113.5q40.5 -38.5 103.5 -38.5t103.5 38.5t40.5 108.5v257
q0 69 -40.5 107.5t-103.5 38.5t-103.5 -38.5t-40.5 -107.5v-257q0 -70 40.5 -108.5z" />
    <glyph glyph-name="omacron" unicode="&#x14d;" horiz-adv-x="536" 
d="M409 709v-86h-280v86h280zM117.5 514.5q55.5 55.5 151.5 55.5t151.5 -55t55.5 -152v-166q0 -97 -55.5 -152t-151.5 -55t-151.5 55.5t-55.5 151.5v166q0 96 55.5 151.5zM184 107.5q29 -34.5 85 -34.5q55 0 84.5 34.5t29.5 101.5v142q0 67 -29.5 101.5t-84.5 34.5
q-56 0 -85 -34.5t-29 -101.5v-142q0 -67 29 -101.5z" />
    <glyph glyph-name="Obreve" unicode="&#x14e;" horiz-adv-x="594" 
d="M243 879q0 -30 14 -46.5t39 -16.5q28 0 43 16.5t15 46.5h66v-8q0 -57 -33.5 -88t-90.5 -31q-54 0 -87 31.5t-33 87.5v8h67zM88 609.5q32 50.5 87.5 77.5t122.5 27t122.5 -27t87.5 -77.5t32 -117.5v-284q0 -67 -32 -117.5t-87.5 -77.5t-122.5 -27t-122.5 27t-87.5 77.5
t-32 117.5v284q0 67 32 117.5zM194.5 113.5q40.5 -38.5 103.5 -38.5t103.5 38.5t40.5 108.5v257q0 69 -40.5 107.5t-103.5 38.5t-103.5 -38.5t-40.5 -107.5v-257q0 -70 40.5 -108.5z" />
    <glyph glyph-name="obreve" unicode="&#x14f;" horiz-adv-x="536" 
d="M213 739q0 -30 14 -46.5t40 -16.5q28 0 42.5 16.5t14.5 46.5h66v-8q0 -57 -33.5 -88t-89.5 -31q-54 0 -87.5 31.5t-33.5 87.5v8h67zM117.5 514.5q55.5 55.5 151.5 55.5t151.5 -55t55.5 -152v-166q0 -97 -55.5 -152t-151.5 -55t-151.5 55.5t-55.5 151.5v166
q0 96 55.5 151.5zM184 107.5q29 -34.5 85 -34.5q55 0 84.5 34.5t29.5 101.5v142q0 67 -29.5 101.5t-84.5 34.5q-56 0 -85 -34.5t-29 -101.5v-142q0 -67 29 -101.5z" />
    <glyph glyph-name="Ohungarumlaut" unicode="&#x150;" horiz-adv-x="594" 
d="M340 861l-83 -112l-55 19l72 119zM465 861l-93 -112l-55 19l81 119zM89 609.5q32 50.5 87 77.5t123 27q67 0 122 -27t87 -77.5t32 -117.5v-284q0 -67 -32 -117.5t-87 -77.5t-122 -27q-68 0 -123 27t-87 77.5t-32 117.5v284q0 67 32 117.5zM195 113.5q41 -38.5 104 -38.5
q62 0 102.5 39t40.5 108v257q0 69 -40.5 107.5t-102.5 38.5q-63 0 -104 -38.5t-41 -107.5v-257q0 -70 41 -108.5z" />
    <glyph glyph-name="ohungarumlaut" unicode="&#x151;" horiz-adv-x="536" 
d="M314 729l-83 -113l-55 19l73 119zM439 729l-93 -113l-56 19l82 119zM117.5 514.5q55.5 55.5 151.5 55.5t151.5 -55t55.5 -152v-166q0 -97 -55.5 -152t-151.5 -55t-151.5 55.5t-55.5 151.5v166q0 96 55.5 151.5zM184.5 107.5q29.5 -34.5 84.5 -34.5q56 0 85 34.5t29 101.5
v142q0 67 -29 101.5t-85 34.5q-55 0 -84.5 -34.5t-29.5 -101.5v-142q0 -67 29.5 -101.5z" />
    <glyph glyph-name="OE" unicode="&#x152;" horiz-adv-x="847" 
d="M88.5 609.5q28.5 50.5 80.5 77.5t119 27q43 0 81.5 -16.5t58.5 -46.5v49h378v-89h-281v-210h231v-88h-231v-225h288v-88h-385v46q-50 -60 -140 -60q-67 0 -119 27t-80.5 77.5t-28.5 118.5v282q0 68 28.5 118.5zM194 113q37 -38 98 -38q59 0 97.5 39t38.5 106v261
q0 67 -38 105.5t-98 38.5q-61 0 -98 -38t-37 -108v-257q0 -71 37 -109z" />
    <glyph glyph-name="oe" unicode="&#x153;" horiz-adv-x="856" 
d="M719 27q-51 -37 -130 -37q-53 0 -94.5 19t-65.5 56q-24 -37 -65.5 -56t-94.5 -19q-96 0 -151.5 55t-55.5 152v166q0 97 55.5 152t151.5 55q52 0 93 -19.5t67 -56.5q26 37 67 56.5t93 19.5q96 0 152 -55.5t56 -151.5v-103h-322v-63q1 -63 30.5 -94t83.5 -31q47 0 74.5 20
t36.5 56l86 -23q-16 -61 -67 -98zM704 355q0 65 -29 99t-85 34t-85 -31t-29 -94v-31l228 1v22zM184 107.5q29 -34.5 85 -34.5q111 0 114 122v164q0 128 -114 128q-56 0 -85 -34.5t-29 -101.5v-142q0 -67 29 -101.5z" />
    <glyph glyph-name="Racute" unicode="&#x154;" horiz-adv-x="568" 
d="M390 877l-105 -131l-51 32l83 143zM158 274v-274h-96v700h245q66 0 115.5 -25.5t76 -69.5t26.5 -100v-37q0 -65 -38.5 -115t-104.5 -68l156 -282l-104 -13l-154 284h-122zM307 362q57 0 89 33.5t32 86.5v10q0 54 -32 86.5t-89 32.5h-149v-249h149z" />
    <glyph glyph-name="racute" unicode="&#x155;" horiz-adv-x="324" 
d="M310 737l-106 -131l-50 32l83 143zM160 570v-73q29 34 67.5 53.5t80.5 19.5l7 -86q-46 0 -86 -21t-69 -57v-406h-92v557z" />
    <glyph glyph-name="Rcommaaccent" unicode="&#x156;" horiz-adv-x="568" 
d="M158 274v-274h-96v700h245q66 0 115.5 -25.5t76 -69.5t26.5 -100v-37q0 -65 -38.5 -115t-104.5 -68l156 -282l-104 -13l-154 284h-122zM307 362q57 0 89 33.5t32 86.5v10q0 54 -32 86.5t-89 32.5h-149v-249h149zM241 -170.5q13 10.5 13 25.5q-20 12 -20 45q0 27 14 41
t38 14q26 0 41 -14t15 -41q0 -43 -27.5 -81.5t-87.5 -48.5l-15 47q16 2 29 12.5z" />
    <glyph glyph-name="rcommaaccent" unicode="&#x157;" horiz-adv-x="324" 
d="M160 570v-73q29 34 67.5 53.5t80.5 19.5l7 -86q-46 0 -86 -21t-69 -57v-406h-92v557zM70 -172q12 11 13 28q-21 13 -21 44q0 28 14 41.5t38 13.5q55 0 55 -55q0 -42 -26.5 -81.5t-85.5 -51.5l-16 48q17 2 29 13z" />
    <glyph glyph-name="Rcaron" unicode="&#x158;" horiz-adv-x="568" 
d="M241 891l46 -81l47 81l71 -18l-80 -117h-76l-78 115zM158 274v-274h-96v700h245q66 0 115.5 -25.5t76 -69.5t26.5 -100v-37q0 -65 -38.5 -115t-104.5 -68l156 -282l-104 -13l-154 284h-122zM307 362q57 0 89 33.5t32 86.5v10q0 54 -32 86.5t-89 32.5h-149v-249h149z" />
    <glyph glyph-name="rcaron" unicode="&#x159;" horiz-adv-x="324" 
d="M147 751l46 -81l46 81l72 -18l-80 -117h-76l-78 115zM160 570v-73q29 34 67.5 53.5t80.5 19.5l7 -86q-46 0 -86 -21t-69 -57v-406h-92v557z" />
    <glyph glyph-name="Sacute" unicode="&#x15a;" horiz-adv-x="553" 
d="M410 877l-105 -131l-51 32l83 143zM190 99.5q37 -23.5 88 -23.5q68 0 103.5 29t35.5 80v10q0 100 -140 113q-223 23 -223 191v21q0 89 54.5 141t164.5 52q89 0 142.5 -37.5t73.5 -102.5l-93 -27q-28 78 -123 78q-62 0 -92.5 -29t-30.5 -76v-9q0 -55 36 -78.5t105 -31.5
q97 -11 159.5 -54t62.5 -138v-26q0 -92 -60 -144t-174 -52q-89 0 -151.5 40t-82.5 104l93 30q15 -37 52 -60.5z" />
    <glyph glyph-name="sacute" unicode="&#x15b;" horiz-adv-x="484" 
d="M361 737l-106 -131l-50 32l82 143zM166.5 89.5q30.5 -21.5 78.5 -21.5q52 0 79 24t27 61v6q0 39 -30.5 57t-93.5 25q-81 10 -129.5 46.5t-48.5 107.5v18q0 72 47.5 114.5t139.5 42.5q81 0 130 -36.5t61 -95.5l-85 -25q-12 79 -106 79q-49 0 -71.5 -22.5t-22.5 -60.5v-5
q0 -36 28.5 -54t88.5 -27q88 -13 136 -44.5t48 -105.5v-23q1 -70 -52 -115t-146 -45q-83 0 -136 35.5t-68 94.5l86 25q9 -34 39.5 -55.5z" />
    <glyph glyph-name="Scircumflex" unicode="&#x15c;" horiz-adv-x="553" 
d="M313 881l70 -103l-69 -22l-40 72l-40 -72l-68 22l69 103h78zM190 99.5q37 -23.5 88 -23.5q68 0 103.5 29t35.5 80v10q0 100 -140 113q-223 23 -223 191v21q0 89 54.5 141t164.5 52q89 0 142.5 -37.5t73.5 -102.5l-93 -27q-28 78 -123 78q-62 0 -92.5 -29t-30.5 -76v-9
q0 -55 36 -78.5t105 -31.5q97 -11 159.5 -54t62.5 -138v-26q0 -92 -60 -144t-174 -52q-89 0 -151.5 40t-82.5 104l93 30q15 -37 52 -60.5z" />
    <glyph glyph-name="scircumflex" unicode="&#x15d;" horiz-adv-x="484" 
d="M280 741l69 -103l-67 -22l-41 72l-40 -72l-68 22l70 103h77zM166.5 89.5q30.5 -21.5 78.5 -21.5q52 0 79 24t27 61v6q0 39 -30.5 57t-93.5 25q-81 10 -129.5 46.5t-48.5 107.5v18q0 72 47.5 114.5t139.5 42.5q81 0 130 -36.5t61 -95.5l-85 -25q-12 79 -106 79
q-49 0 -71.5 -22.5t-22.5 -60.5v-5q0 -36 28.5 -54t88.5 -27q88 -13 136 -44.5t48 -105.5v-23q1 -70 -52 -115t-146 -45q-83 0 -136 35.5t-68 94.5l86 25q9 -34 39.5 -55.5z" />
    <glyph glyph-name="Scedilla" unicode="&#x15e;" horiz-adv-x="553" 
d="M186 432q36 -23 105 -32q98 -12 160.5 -54.5t62.5 -137.5v-26q0 -81 -48 -132t-140 -61l-8 -24q27 -4 43.5 -19t16.5 -42q0 -37 -29.5 -52.5t-71.5 -15.5q-34 0 -58 9l6 40q15 -5 32 -5q19 0 29.5 7t10.5 20q0 15 -13 21.5t-27 7t-18 0.5l20 51q-82 4 -138.5 43.5
t-75.5 99.5l93 29q16 -36 53 -59.5t87 -23.5q68 0 103.5 29t35.5 81v9q0 100 -140 113q-223 23 -223 191v21q0 89 54.5 141t164.5 52q88 0 142 -38t75 -102l-94 -27q-28 78 -123 78q-62 0 -92.5 -29t-30.5 -77v-8q0 -55 36 -78z" />
    <glyph glyph-name="scedilla" unicode="&#x15f;" horiz-adv-x="484" 
d="M170 350.5q29 -17.5 90 -26.5q88 -14 136 -45.5t48 -105.5v-23q-1 -62 -43 -105t-117 -52l-10 -28q27 -4 43.5 -19t16.5 -42q0 -37 -29.5 -52.5t-71.5 -15.5q-33 0 -57 9l5 40q15 -5 32 -5q19 0 30 7t11 20q0 15 -13 21.5t-27 7t-18 0.5l21 55q-71 6 -117 40.5t-59 88.5
l87 25q8 -33 38.5 -55t78.5 -22q52 0 79.5 24t27.5 61v6q0 39 -30.5 56.5t-94.5 25.5q-81 10 -129.5 46.5t-48.5 107.5v18q0 72 47.5 114.5t139.5 42.5q81 0 130 -36.5t61 -95.5l-85 -25q-12 79 -106 79q-49 0 -72 -22.5t-23 -60.5v-5q0 -36 29 -53.5z" />
    <glyph glyph-name="Scaron" unicode="&#x160;" horiz-adv-x="553" 
d="M228 891l46 -81l47 81l71 -18l-80 -117h-76l-77 115zM190 99.5q37 -23.5 88 -23.5q68 0 103.5 29t35.5 80v10q0 100 -140 113q-223 23 -223 191v21q0 89 54.5 141t164.5 52q89 0 142.5 -37.5t73.5 -102.5l-93 -27q-28 78 -123 78q-62 0 -92.5 -29t-30.5 -76v-9
q0 -55 36 -78.5t105 -31.5q97 -11 159.5 -54t62.5 -138v-26q0 -92 -60 -144t-174 -52q-89 0 -151.5 40t-82.5 104l93 30q15 -37 52 -60.5z" />
    <glyph glyph-name="scaron" unicode="&#x161;" horiz-adv-x="484" 
d="M194 751l45 -81l47 81l71 -18l-79 -117h-76l-78 115zM166.5 89.5q30.5 -21.5 78.5 -21.5q52 0 79 24t27 61v6q0 39 -30.5 57t-93.5 25q-81 10 -129.5 46.5t-48.5 107.5v18q0 72 47.5 114.5t139.5 42.5q81 0 130 -36.5t61 -95.5l-85 -25q-12 79 -106 79q-49 0 -71.5 -22.5
t-22.5 -60.5v-5q0 -36 28.5 -54t88.5 -27q88 -13 136 -44.5t48 -105.5v-23q1 -70 -52 -115t-146 -45q-83 0 -136 35.5t-68 94.5l86 25q9 -34 39.5 -55.5z" />
    <glyph glyph-name="uni0162" unicode="&#x162;" horiz-adv-x="483" 
d="M7 612v88h470v-88h-186v-612h-98v612h-186zM194 -170.5q13 10.5 13 25.5q-20 12 -20 45q0 27 14 41t38 14q26 0 41 -14t15 -41q0 -43 -27.5 -81.5t-87.5 -48.5l-15 47q16 2 29 12.5z" />
    <glyph glyph-name="uni0163" unicode="&#x163;" horiz-adv-x="333" 
d="M13 481v79h59l20 90l70 13v-103h154v-79h-154v-306q0 -42 6.5 -65t23.5 -33.5t51 -10.5q17 0 38 2t34 6l14 -73q-18 -5 -47.5 -9.5t-48.5 -4.5q-90 0 -127 41t-37 138v315h-56zM151 -172q12 11 13 28q-20 12 -20 44q0 28 14 41.5t38 13.5q54 0 54 -55q0 -43 -26 -82
t-85 -51l-16 48q16 2 28 13z" />
    <glyph glyph-name="Tcaron" unicode="&#x164;" horiz-adv-x="484" 
d="M197 892l45 -82l47 82l71 -18l-80 -117h-75l-79 115zM8 612v88h470v-88h-187v-612h-97v612h-186z" />
    <glyph glyph-name="tcaron" unicode="&#x165;" horiz-adv-x="333" 
d="M248 653.5q13 10.5 14 25.5q-20 11 -20 45q0 27 13.5 40.5t38.5 13.5q26 0 40.5 -13.5t14.5 -40.5q0 -43 -27.5 -81.5t-87.5 -49.5l-14 48q15 2 28 12.5zM13 481v79h59l20 90l70 13v-103h154v-79h-154v-306q0 -42 6.5 -65t23.5 -33.5t51 -10.5q17 0 38 2t34 6l14 -73
q-18 -5 -47.5 -9.5t-48.5 -4.5q-90 0 -127 41t-37 138v315h-56z" />
    <glyph glyph-name="Tbar" unicode="&#x166;" horiz-adv-x="484" 
d="M58 420v83h136v109h-186v88h469v-88h-186v-109h136v-83h-136v-420h-97v420h-136z" />
    <glyph glyph-name="tbar" unicode="&#x167;" horiz-adv-x="333" 
d="M281.5 -8.5q-29.5 -4.5 -48.5 -4.5q-90 0 -127 40.5t-37 137.5v149h-56v79h56v88h-56v79h59l20 90l70 13v-103h154v-79h-154v-88h154v-79h-155v-138q0 -62 16 -86t65 -24q16 0 38 2t35 6l14 -73q-18 -5 -47.5 -9.5z" />
    <glyph glyph-name="Utilde" unicode="&#x168;" horiz-adv-x="580" 
d="M150.5 853q25.5 28 65.5 28q22 0 43.5 -7.5t48.5 -20.5q5 -2 21 -9t26 -7q33 0 36 37l67 -15q-3 -44 -27 -71t-68 -27q-18 0 -35 5.5t-45 18.5q-40 19 -58 19q-33 0 -35 -37l-68 16q3 42 28.5 70zM362.5 93.5q39.5 21.5 61.5 53.5v553h97v-517q0 -56 5.5 -89.5
t21.5 -70.5l-86 -33q-11 18 -26 71q-29 -31 -76.5 -53t-97.5 -22q-203 0 -203 208v503l98 13v-503q0 -71 27.5 -103t89.5 -32q49 0 88.5 21.5z" />
    <glyph glyph-name="utilde" unicode="&#x169;" horiz-adv-x="527" 
d="M124.5 713q25.5 28 65.5 28q22 0 42 -7t50 -20q36 -17 48 -17q32 0 35 37l68 -15q-4 -44 -28 -71t-67 -27q-18 0 -36.5 6t-43.5 18q-40 19 -59 19q-33 0 -35 -37l-68 16q3 42 28.5 70zM316.5 6.5q-39.5 -16.5 -81.5 -16.5q-170 0 -170 202v365l92 13v-367q0 -69 20 -100
t70 -31q41 0 72.5 16.5t50.5 46.5v422l92 13v-395q0 -55 5.5 -88t21.5 -65l-79 -32q-15 22 -26 60q-28 -27 -67.5 -43.5z" />
    <glyph glyph-name="Umacron" unicode="&#x16a;" horiz-adv-x="580" 
d="M430 849v-86h-280v86h280zM362.5 93.5q39.5 21.5 61.5 53.5v553h97v-517q0 -56 5.5 -89.5t21.5 -70.5l-86 -33q-11 18 -26 71q-29 -31 -76.5 -53t-97.5 -22q-203 0 -203 208v503l98 13v-503q0 -71 27.5 -103t89.5 -32q49 0 88.5 21.5z" />
    <glyph glyph-name="umacron" unicode="&#x16b;" horiz-adv-x="529" 
d="M405 709v-86h-280v86h280zM316.5 6.5q-39.5 -16.5 -81.5 -16.5q-170 0 -170 202v365l92 13v-367q0 -69 20 -100t70 -31q41 0 72.5 16.5t50.5 46.5v422l92 13v-395q0 -55 5.5 -88t21.5 -65l-79 -32q-15 22 -26 60q-28 -27 -67.5 -43.5z" />
    <glyph glyph-name="Ubreve" unicode="&#x16c;" horiz-adv-x="580" 
d="M238 879q0 -30 14 -46.5t40 -16.5q28 0 42.5 16.5t14.5 46.5h66v-8q0 -57 -33.5 -88t-89.5 -31q-54 0 -87 31t-33 88v8h66zM362.5 93.5q39.5 21.5 61.5 53.5v553h97v-517q0 -56 5.5 -89.5t21.5 -70.5l-86 -33q-11 18 -26 71q-29 -31 -76.5 -53t-97.5 -22q-203 0 -203 208
v503l98 13v-503q0 -71 27.5 -103t89.5 -32q49 0 88.5 21.5z" />
    <glyph glyph-name="ubreve" unicode="&#x16d;" horiz-adv-x="527" 
d="M210 739q0 -30 14 -46.5t40 -16.5q28 0 42.5 16.5t14.5 46.5h66v-8q0 -56 -34 -87.5t-89 -31.5t-88 31.5t-33 87.5v8h67zM316.5 6.5q-39.5 -16.5 -81.5 -16.5q-170 0 -170 202v365l92 13v-367q0 -69 20 -100t70 -31q41 0 72.5 16.5t50.5 46.5v422l92 13v-395
q0 -55 5.5 -88t21.5 -65l-79 -32q-15 22 -26 60q-28 -27 -67.5 -43.5z" />
    <glyph glyph-name="Uring" unicode="&#x16e;" horiz-adv-x="580" 
d="M234.5 886.5q21.5 20.5 54.5 20.5q35 0 56.5 -20.5t21.5 -54.5v-10q0 -36 -21 -56t-57 -20q-34 0 -55 20.5t-21 55.5v10q0 34 21.5 54.5zM315 796.5q9 10.5 9 29.5q0 40 -35 40q-32 0 -32 -40q0 -18 8.5 -29t23.5 -11q17 0 26 10.5zM362.5 93.5q39.5 21.5 61.5 53.5v553
h97v-517q0 -56 5.5 -89.5t21.5 -70.5l-86 -33q-11 18 -26 71q-29 -31 -76.5 -53t-97.5 -22q-203 0 -203 208v503l98 13v-503q0 -71 27.5 -103t89.5 -32q49 0 88.5 21.5z" />
    <glyph glyph-name="uring" unicode="&#x16f;" horiz-adv-x="527" 
d="M210 746.5q21 20.5 54 20.5q35 0 56.5 -20.5t21.5 -54.5v-10q0 -35 -21.5 -55.5t-56.5 -20.5q-34 0 -54.5 20.5t-20.5 55.5v10q0 34 21 54.5zM298 686q0 40 -34 40q-33 0 -33 -40q0 -18 8.5 -29t24.5 -11q34 0 34 40zM316.5 6.5q-39.5 -16.5 -81.5 -16.5q-170 0 -170 202
v365l92 13v-367q0 -69 20 -100t70 -31q41 0 72.5 16.5t50.5 46.5v422l92 13v-395q0 -55 5.5 -88t21.5 -65l-79 -32q-15 22 -26 60q-28 -27 -67.5 -43.5z" />
    <glyph glyph-name="Uhungarumlaut" unicode="&#x170;" horiz-adv-x="580" 
d="M339 869l-84 -113l-55 19l73 119zM463 869l-92 -113l-56 19l81 119zM362.5 93.5q39.5 21.5 61.5 53.5v553h97v-517q0 -56 5.5 -89.5t21.5 -70.5l-86 -33q-11 18 -26 71q-29 -31 -76.5 -53t-97.5 -22q-203 0 -203 208v503l98 13v-503q0 -71 27.5 -103t89.5 -32
q49 0 88.5 21.5z" />
    <glyph glyph-name="uhungarumlaut" unicode="&#x171;" horiz-adv-x="527" 
d="M294 729l-84 -113l-55 19l73 119zM419 729l-93 -113l-56 19l82 119zM316.5 6.5q-39.5 -16.5 -81.5 -16.5q-170 0 -170 202v365l92 13v-367q0 -69 20 -100t70 -31q41 0 72.5 16.5t50.5 46.5v422l92 13v-395q0 -55 5.5 -88t21.5 -65l-79 -32q-15 22 -26 60
q-28 -27 -67.5 -43.5z" />
    <glyph glyph-name="Uogonek" unicode="&#x172;" horiz-adv-x="580" 
d="M527.5 93.5q5.5 -33.5 21.5 -70.5q-40 -18 -72.5 -47.5t-32.5 -52.5q0 -34 36 -34q24 0 36 3l9 -46q-31 -9 -67 -9q-41 0 -66 18t-25 56q0 27 22 53.5t62 49.5q-9 24 -14 47q-30 -31 -77.5 -53t-97.5 -22q-203 0 -203 208v503l97 13v-503q0 -71 28 -103t90 -32
q49 0 88 21.5t62 53.5v553h98v-517q0 -56 5.5 -89.5z" />
    <glyph glyph-name="uogonek" unicode="&#x173;" horiz-adv-x="527" 
d="M468.5 85.5q5.5 -32.5 21.5 -63.5q-46 -22 -66.5 -48t-20.5 -51q0 -34 36 -34q24 0 37 3l8 -46q-31 -9 -67 -9q-41 0 -65.5 18t-24.5 56q0 26 20 53.5t52 45.5q-7 14 -15 40q-28 -27 -67.5 -43.5t-81.5 -16.5q-170 0 -170 202v365l93 13v-367q0 -69 19.5 -100t69.5 -31
q41 0 72.5 16.5t50.5 46.5v422l93 13v-395q0 -57 5.5 -89.5z" />
    <glyph glyph-name="Wcircumflex" unicode="&#x174;" horiz-adv-x="881" 
d="M479 881l70 -103l-68 -22l-41 72l-40 -72l-67 22l69 103h77zM107 710l148 -591l136 581h101l136 -581l143 581h105l-200 -700h-99l-137 569l-134 -569h-100l-200 697z" />
    <glyph glyph-name="wcircumflex" unicode="&#x175;" horiz-adv-x="747" 
d="M412 741l71 -103l-69 -22l-40 72l-41 -72l-67 22l69 103h77zM101 570l116 -453l105 443h101l108 -441l113 441h98l-164 -560h-98l-108 440l-105 -440h-98l-163 557z" />
    <glyph glyph-name="Ycircumflex" unicode="&#x176;" horiz-adv-x="531" 
d="M304 881l70 -103l-68 -22l-41 72l-39 -72l-68 22l69 103h77zM6 697l109 13l152 -372l147 362h113l-212 -461v-239h-97v237z" />
    <glyph glyph-name="ycircumflex" unicode="&#x177;" horiz-adv-x="539" 
d="M313 741l70 -103l-68 -22l-41 72l-40 -72l-68 22l70 103h77zM194 -62.5q26 -14.5 80 -14.5q53 0 81 27t28 88v63q-28 -30 -66.5 -46t-79.5 -16q-170 0 -169 184v334l92 13v-326q-1 -63 22 -92t76 -29q35 0 68.5 18.5t53.5 45.5v370l93 13v-543q0 -91 -53 -139t-146 -48
t-143.5 34t-56.5 99l88 15q6 -36 32 -50.5z" />
    <glyph glyph-name="Ydieresis" unicode="&#x178;" horiz-adv-x="531" 
d="M117 766.5q-13 15.5 -13 43.5q0 30 13 46.5t38 16.5q27 0 41 -16.5t14 -46.5q0 -28 -14 -43.5t-41 -15.5q-25 0 -38 15.5zM335 766.5q-13 15.5 -13 43.5q0 30 13 46.5t37 16.5q27 0 41 -16.5t14 -46.5q0 -28 -14 -43.5t-41 -15.5q-24 0 -37 15.5zM6 697l109 13l152 -372
l147 362h113l-212 -461v-239h-97v237z" />
    <glyph glyph-name="Zacute" unicode="&#x179;" horiz-adv-x="526" 
d="M374 875l-105 -131l-51 32l83 143zM365 612h-323v88h439v-91l-333 -521h349v-88h-466v90z" />
    <glyph glyph-name="zacute" unicode="&#x17a;" horiz-adv-x="449" 
d="M332 737l-105 -131l-50 32l82 143zM296 479h-256v81h368v-79l-266 -400h278v-81h-386v86z" />
    <glyph glyph-name="Zdotaccent" unicode="&#x17b;" horiz-adv-x="526" 
d="M222 768q-15 15 -15 45q0 31 14.5 46.5t40.5 15.5q27 0 42.5 -15.5t15.5 -46.5q0 -30 -15.5 -45t-42.5 -15q-25 0 -40 15zM365 612h-323v88h439v-91l-333 -521h349v-88h-466v90z" />
    <glyph glyph-name="zdotaccent" unicode="&#x17c;" horiz-adv-x="449" 
d="M180.5 628q-14.5 15 -14.5 45q0 31 14.5 46.5t39.5 15.5q27 0 42.5 -15.5t15.5 -46.5q0 -30 -15.5 -45t-42.5 -15q-25 0 -39.5 15zM296 479h-256v81h368v-79l-266 -400h278v-81h-386v86z" />
    <glyph glyph-name="Zcaron" unicode="&#x17d;" horiz-adv-x="526" 
d="M217 891l46 -81l47 81l71 -18l-80 -117h-76l-77 115zM365 612h-323v88h439v-91l-333 -521h349v-88h-466v90z" />
    <glyph glyph-name="zcaron" unicode="&#x17e;" horiz-adv-x="449" 
d="M184 751l46 -81l46 81l71 -18l-79 -117h-76l-78 115zM296 479h-256v81h368v-79l-266 -400h278v-81h-386v86z" />
    <glyph glyph-name="longs" unicode="&#x17f;" horiz-adv-x="310" 
d="M8 401v79h60v56q0 97 42 145.5t128 48.5q37 0 86 -15l-16 -76q-33 11 -64 11q-47 0 -65.5 -29t-18.5 -97l1 -524h-93v401h-60z" />
    <glyph glyph-name="florin" unicode="&#x192;" horiz-adv-x="393" 
d="M-104 -81q51 0 85 36t45 103l55 317h-53l13 82h54l17 97q17 97 76.5 151.5t152.5 54.5q16 0 36 -4l-14 -79q-8 1 -28 1q-51 0 -86 -36t-47 -103l-15 -82h156l-13 -82h-156l-59 -332q-18 -98 -72 -150.5t-144 -52.5q-22 0 -31 3l11 77q6 -1 17 -1z" />
    <glyph glyph-name="AEacute" unicode="&#x1fc;" horiz-adv-x="907" 
d="M636 877l-105 -132l-51 33l83 142zM865 700v-89h-299v-260h249v-89h-249v-174h306v-88h-403v235h-233l-116 -235h-117l363 700h499zM469 612h-50l-140 -288h190v288z" />
    <glyph glyph-name="aeacute" unicode="&#x1fd;" horiz-adv-x="843" 
d="M559 737l-105 -131l-51 32l83 143zM706 26.5q-51 -36.5 -129 -36.5q-119 0 -171 82q-75 -82 -191 -82q-77 0 -120 45.5t-43 122.5q0 81 46 121t132 40h139v46q0 61 -25.5 91.5t-79.5 30.5q-44 0 -72 -19.5t-36 -52.5l-87 25q15 57 66.5 93.5t128.5 36.5q53 0 92.5 -18.5
t63.5 -53.5q25 35 65.5 53.5t91.5 18.5q96 0 151 -55t55 -152v-115h-321v-42q0 -66 29.5 -100t85.5 -34q91 0 110 76l86 -24q-16 -61 -67 -97.5zM691 354q0 66 -29 100t-85 34q-55 0 -85 -33t-30 -96v-40h229v35zM238 249q-91 0 -91 -87q0 -43 23.5 -67.5t64.5 -24.5t77 19
t57 48v112h-131z" />
    <glyph glyph-name="Oslashacute" unicode="&#x1fe;" horiz-adv-x="594" 
d="M429 877l-105 -131l-51 32l82 143zM57 202v289q0 67 32 118t87 78t123 27q73 0 130.5 -32t84.5 -90l32 26l47 -76l-53 -45v-288q0 -67 -32 -117.5t-87 -78t-122 -27.5q-74 0 -131.5 32t-85.5 90l-32 -28l-47 78zM386 599q-37 26 -87 26q-63 0 -104 -38.5t-41 -108.5v-191
l282 238q-13 48 -50 74zM160 174q12 -47 50 -73t89 -26q62 0 102.5 38.5t40.5 108.5v191z" />
    <glyph glyph-name="oslashacute" unicode="&#x1ff;" horiz-adv-x="536" 
d="M389 737l-105 -131l-50 32l82 143zM64 163q-2 11 -2 34v166q0 96 55.5 151.5t151.5 55.5q118 0 173 -86l48 41l44 -77l-61 -51q3 -16 3 -34v-166q0 -97 -55.5 -152t-151.5 -55q-60 0 -104 22t-69 63l-45 -38l-47 75zM269 488q-55 0 -85 -35t-30 -102v-110l217 183
q-26 64 -102 64zM166 135q26 -63 103 -63q56 0 85.5 35t29.5 102v110z" />
    <glyph glyph-name="Scommaaccent" unicode="&#x218;" horiz-adv-x="553" 
d="M190 99.5q37 -23.5 88 -23.5q68 0 103.5 29t35.5 80v10q0 100 -140 113q-223 23 -223 191v21q0 89 54.5 141t164.5 52q89 0 142.5 -37.5t73.5 -102.5l-93 -27q-28 78 -123 78q-62 0 -92.5 -29t-30.5 -76v-9q0 -55 36 -78.5t105 -31.5q97 -11 159.5 -54t62.5 -138v-26
q0 -92 -60 -144t-174 -52q-89 0 -151.5 40t-82.5 104l93 30q15 -37 52 -60.5zM243 -170.5q13 10.5 13 25.5q-20 12 -20 45q0 27 14 41t38 14q26 0 41 -14t15 -41q0 -43 -27.5 -81.5t-87.5 -48.5l-15 47q16 2 29 12.5z" />
    <glyph glyph-name="scommaaccent" unicode="&#x219;" horiz-adv-x="484" 
d="M166.5 89.5q30.5 -21.5 78.5 -21.5q52 0 79 24t27 61v6q0 39 -30.5 57t-93.5 25q-81 10 -129.5 46.5t-48.5 107.5v18q0 72 47.5 114.5t139.5 42.5q81 0 130 -36.5t61 -95.5l-85 -25q-12 79 -106 79q-49 0 -71.5 -22.5t-22.5 -60.5v-5q0 -36 28.5 -54t88.5 -27
q88 -13 136 -44.5t48 -105.5v-23q1 -70 -52 -115t-146 -45q-83 0 -136 35.5t-68 94.5l86 25q9 -34 39.5 -55.5zM222 -172q12 11 13 28q-21 13 -21 44q0 28 14 41.5t39 13.5t39.5 -13.5t14.5 -41.5q0 -42 -26.5 -81.5t-85.5 -51.5l-16 48q17 2 29 13z" />
    <glyph glyph-name="uni0237" unicode="&#x237;" horiz-adv-x="229" 
d="M163 36q0 -92 -49.5 -141.5t-143.5 -54.5l-12 75q61 3 87 34.5t26 97.5v434h-62v79h154v-524z" />
    <glyph glyph-name="circumflex" unicode="&#x2c6;" horiz-adv-x="344" 
d="M211 741l70 -103l-68 -22l-41 72l-40 -72l-67 22l69 103h77z" />
    <glyph glyph-name="caron" unicode="&#x2c7;" horiz-adv-x="344" 
d="M127 751l45 -81l47 81l71 -18l-80 -117h-75l-78 115z" />
    <glyph glyph-name="breve" unicode="&#x2d8;" horiz-adv-x="343" 
d="M117 739q0 -30 14 -46.5t39 -16.5q28 0 43 16.5t15 46.5h66v-8q0 -57 -33.5 -88t-90.5 -31q-54 0 -87 31.5t-33 87.5v8h67z" />
    <glyph glyph-name="dotaccent" unicode="&#x2d9;" horiz-adv-x="198" 
d="M57.5 628q-14.5 15 -14.5 44q0 31 14.5 47t40.5 16q27 0 42.5 -16t15.5 -47q0 -29 -15.5 -44t-42.5 -15q-26 0 -40.5 15z" />
    <glyph glyph-name="ring" unicode="&#x2da;" horiz-adv-x="252" 
d="M71 746.5q21 20.5 54 20.5q35 0 56.5 -20.5t21.5 -54.5v-10q0 -36 -21 -56t-57 -20q-34 0 -54.5 20.5t-20.5 55.5v10q0 34 21 54.5zM151 656.5q9 10.5 9 29.5q0 40 -35 40q-32 0 -32 -40q0 -18 8.5 -29t23.5 -11q17 0 26 10.5z" />
    <glyph glyph-name="ogonek" unicode="&#x2db;" horiz-adv-x="256" 
d="M143.5 -35.5q-17.5 -20.5 -17.5 -41.5q0 -34 36 -34q24 0 37 3l9 -46q-32 -9 -67 -9q-41 0 -66 18t-25 56q0 27 18.5 52.5t46.5 36.5h76q-30 -15 -47.5 -35.5z" />
    <glyph glyph-name="tilde" unicode="&#x2dc;" horiz-adv-x="424" 
d="M72.5 713q25.5 28 65.5 28q22 0 42 -7t50 -20q36 -17 48 -17q32 0 35 38l68 -17q-4 -43 -28 -70t-67 -27q-18 0 -35 5.5t-45 18.5q-21 10 -34.5 14.5t-24.5 4.5q-33 0 -35 -37l-68 16q3 42 28.5 70z" />
    <glyph glyph-name="hungarumlaut" unicode="&#x2dd;" horiz-adv-x="360" 
d="M202 729l-84 -113l-54 19l72 119zM327 729l-93 -113l-56 19l82 119z" />
    <glyph glyph-name="uni0326" unicode="&#x326;" horiz-adv-x="0" 
d="M-377 -172q12 11 13 28q-21 13 -21 44q0 28 14 41.5t38 13.5q55 0 55 -55q0 -42 -26.5 -81.5t-85.5 -51.5l-16 48q17 2 29 13z" />
    <glyph glyph-name="pi" unicode="&#x3c0;" horiz-adv-x="697" 
d="M72 75q47 0 67.5 31.5t20.5 94.5v267q-28 0 -54 -8t-42 -17t-20 -12l-6 90q21 16 61.5 27.5t85.5 11.5h356q28 0 52 3.5t38.5 7.5t18.5 5l6 -84q-4 -1 -19 -5.5t-39 -8.5t-50 -4v-342q0 -36 4 -65.5t8 -46t5 -20.5h-91q-2 4 -6.5 21.5t-8.5 48t-4 66.5v337h-203v-283
q0 -96 -46 -144t-153 -48l-9 77h28z" />
    <glyph glyph-name="Wgrave" unicode="&#x1e80;" horiz-adv-x="881" 
d="M476 777l-50 -33l-106 131l73 45zM107 710l148 -591l136 581h101l136 -581l143 581h105l-200 -700h-99l-137 569l-134 -569h-100l-200 697z" />
    <glyph glyph-name="wgrave" unicode="&#x1e81;" horiz-adv-x="747" 
d="M403 638l-50 -32l-106 131l73 44zM101 570l116 -453l105 443h101l108 -441l113 441h98l-164 -560h-98l-108 440l-105 -440h-98l-163 557z" />
    <glyph glyph-name="Wacute" unicode="&#x1e82;" horiz-adv-x="881" 
d="M566 877l-106 -131l-51 32l83 143zM107 710l148 -591l136 581h101l136 -581l143 581h105l-200 -700h-99l-137 569l-134 -569h-100l-200 697z" />
    <glyph glyph-name="wacute" unicode="&#x1e83;" horiz-adv-x="747" 
d="M505 737l-105 -131l-51 32l83 143zM101 570l116 -453l105 443h101l108 -441l113 441h98l-164 -560h-98l-108 440l-105 -440h-98l-163 557z" />
    <glyph glyph-name="Wdieresis" unicode="&#x1e84;" horiz-adv-x="881" 
d="M292 766.5q-13 15.5 -13 43.5q0 30 13 46.5t38 16.5q26 0 40 -16.5t14 -46.5q0 -28 -14 -43.5t-40 -15.5q-25 0 -38 15.5zM509.5 766.5q-13.5 15.5 -13.5 43.5q0 30 13.5 46.5t37.5 16.5q26 0 40 -16.5t14 -46.5q0 -28 -14 -43.5t-40 -15.5q-24 0 -37.5 15.5zM107 710
l148 -591l136 581h101l136 -581l143 581h105l-200 -700h-99l-137 569l-134 -569h-100l-200 697z" />
    <glyph glyph-name="wdieresis" unicode="&#x1e85;" horiz-adv-x="747" 
d="M227.5 626.5q-13.5 15.5 -13.5 43.5q0 30 13.5 46.5t38.5 16.5t39 -16.5t14 -46.5q0 -28 -14 -43.5t-39 -15.5t-38.5 15.5zM444 626.5q-13 15.5 -13 43.5q0 30 13 46.5t38 16.5q26 0 40 -16.5t14 -46.5q0 -28 -14 -43.5t-40 -15.5q-25 0 -38 15.5zM101 570l116 -453
l105 443h101l108 -441l113 441h98l-164 -560h-98l-108 440l-105 -440h-98l-163 557z" />
    <glyph glyph-name="Ygrave" unicode="&#x1ef2;" horiz-adv-x="531" 
d="M307 778l-50 -32l-107 131l74 44zM6 697l109 13l152 -372l147 362h113l-212 -461v-239h-97v237z" />
    <glyph glyph-name="ygrave" unicode="&#x1ef3;" horiz-adv-x="539" 
d="M313 638l-50 -32l-106 131l74 44zM194 -62.5q26 -14.5 80 -14.5q53 0 81 27t28 88v63q-28 -30 -66.5 -46t-79.5 -16q-170 0 -169 184v334l92 13v-326q-1 -63 22 -92t76 -29q35 0 68.5 18.5t53.5 45.5v370l93 13v-543q0 -91 -53 -139t-146 -48t-143.5 34t-56.5 99l88 15
q6 -36 32 -50.5z" />
    <glyph glyph-name="endash" unicode="&#x2013;" horiz-adv-x="483" 
d="M477 345v-86h-469v86h469z" />
    <glyph glyph-name="emdash" unicode="&#x2014;" horiz-adv-x="795" 
d="M789 345v-86h-781v86h781z" />
    <glyph glyph-name="quoteleft" unicode="&#x2018;" horiz-adv-x="202" 
d="M67 597q-25 45 -25 92q0 30 15.5 45.5t42.5 15.5q25 0 39.5 -15.5t14.5 -45.5q0 -35 -21 -50q0 -19 12.5 -33t30.5 -23l-22 -49q-62 18 -87 63z" />
    <glyph glyph-name="quoteright" unicode="&#x2019;" horiz-adv-x="202" 
d="M58 606q12 14 12 33q-21 15 -21 50q0 30 15 45.5t40 15.5q26 0 42 -15.5t16 -45.5q0 -47 -25.5 -92t-87.5 -63l-21 49q18 9 30 23z" />
    <glyph glyph-name="quotesinglbase" unicode="&#x201a;" horiz-adv-x="202" 
d="M58 -33q12 14 12 33q-21 15 -21 49q0 30 15 46t40 16q26 0 42 -16t16 -46q0 -46 -25.5 -91t-87.5 -63l-21 49q18 9 30 23z" />
    <glyph glyph-name="quotedblleft" unicode="&#x201c;" horiz-adv-x="359" 
d="M67 597q-25 45 -25 92q0 30 15.5 45.5t42.5 15.5q25 0 39.5 -15.5t14.5 -45.5q0 -35 -21 -50q0 -19 12.5 -33t30.5 -23l-22 -49q-62 18 -87 63zM224 597q-25 45 -25 92q0 30 15.5 45.5t42.5 15.5q25 0 39.5 -15.5t14.5 -45.5q0 -35 -21 -50q1 -19 13.5 -33t29.5 -23
l-22 -49q-62 18 -87 63z" />
    <glyph glyph-name="quotedblright" unicode="&#x201d;" horiz-adv-x="359" 
d="M58 606q12 14 12 33q-21 15 -21 50q0 30 15 45.5t40 15.5q26 0 42 -15.5t16 -45.5q0 -47 -25.5 -92t-87.5 -63l-21 49q18 9 30 23zM214.5 606.5q12.5 14.5 12.5 32.5q-21 15 -21 50q0 30 15 45.5t40 15.5q26 0 41.5 -15.5t15.5 -45.5q0 -47 -25 -92t-87 -63l-21 49
q17 9 29.5 23.5z" />
    <glyph glyph-name="quotedblbase" unicode="&#x201e;" horiz-adv-x="359" 
d="M58 -33q12 14 12 33q-21 15 -21 49q0 30 15 46t40 16q26 0 42 -16t16 -46q0 -46 -25.5 -91t-87.5 -63l-21 49q18 9 30 23zM214.5 -32.5q12.5 14.5 12.5 32.5q-21 15 -21 49q0 30 15 46t40 16q26 0 41.5 -16t15.5 -46q0 -46 -25 -91t-87 -63l-21 49q17 9 29.5 23.5z" />
    <glyph glyph-name="dagger" unicode="&#x2020;" horiz-adv-x="474" 
d="M51 419v86h141v195h92v-195h141v-86h-141v-529h-92v529h-141z" />
    <glyph glyph-name="daggerdbl" unicode="&#x2021;" horiz-adv-x="474" 
d="M51 120v87h141v212h-141v86h141v195h92v-195h141v-86h-141v-212h141v-87h-141v-230h-92v230h-141z" />
    <glyph glyph-name="bullet" unicode="&#x2022;" horiz-adv-x="415" 
d="M98 202q-39 40 -39 120q0 83 39 125t107 42q70 0 111 -42.5t41 -124.5q0 -79 -40.5 -119.5t-111.5 -40.5q-68 0 -107 40z" />
    <glyph glyph-name="ellipsis" unicode="&#x2026;" horiz-adv-x="518" 
d="M56 4q-14 15 -14 44q0 31 14 47t38 16q26 0 40.5 -16t14.5 -47q0 -29 -14.5 -44t-40.5 -15q-24 0 -38 15zM219 4q-14 15 -14 44q0 31 14 47t39 16q26 0 40.5 -16t14.5 -47q0 -29 -14.5 -44t-40.5 -15q-25 0 -39 15zM383 4q-14 15 -14 44q0 31 14 47t39 16q27 0 41 -16
t14 -47q0 -29 -14 -44t-41 -15q-25 0 -39 15z" />
    <glyph glyph-name="perthousand" unicode="&#x2030;" horiz-adv-x="1224" 
d="M729 700l-516 -746l-65 46l513 746zM100 671.5q42 40.5 112 40.5t111.5 -40.5t41.5 -109.5v-127q0 -69 -42 -109.5t-111 -40.5t-111.5 40.5t-42.5 109.5v127q0 69 42 109.5zM160 379q19 -22 52 -22q32 0 51 22t19 64v110q0 42 -19 64.5t-51 22.5q-33 0 -52 -22.5
t-19 -64.5v-110q0 -42 19 -64zM555 376.5q42 40.5 112 40.5q68 0 109.5 -40.5t41.5 -109.5v-127q0 -69 -41.5 -110t-109.5 -41q-70 0 -112 41t-42 110v127q0 69 42 109.5zM903 376.5q42 40.5 112 40.5q69 0 111 -40.5t42 -109.5v-127q0 -69 -42 -110t-111 -41q-70 0 -112 41
t-42 110v127q0 69 42 109.5zM614 83.5q19 -22.5 53 -22.5q32 0 51 22.5t19 63.5v111q0 42 -19 64.5t-51 22.5q-34 0 -53 -22.5t-19 -64.5v-111q0 -41 19 -63.5zM962.5 83.5q19.5 -22.5 52.5 -22.5q32 0 51.5 22.5t19.5 63.5v111q0 42 -19.5 64.5t-51.5 22.5
q-33 0 -52.5 -22.5t-19.5 -64.5v-111q0 -41 19.5 -63.5z" />
    <glyph glyph-name="guilsinglleft" unicode="&#x2039;" horiz-adv-x="281" 
d="M192 101l-141 149v59l141 149l45 -57l-112 -122l112 -121z" />
    <glyph glyph-name="guilsinglright" unicode="&#x203a;" horiz-adv-x="281" 
d="M158 279l-113 122l45 57l142 -149v-59l-142 -149l-45 57z" />
    <glyph glyph-name="fraction" unicode="&#x2044;" horiz-adv-x="396" 
d="M469 700l-476 -744l-66 44l474 743z" />
    <glyph glyph-name="uni2070" unicode="&#x2070;" horiz-adv-x="401" 
d="M91.5 671q40.5 41 110.5 41q69 0 108.5 -40.5t39.5 -111.5v-178q0 -70 -39.5 -110.5t-108.5 -40.5q-70 0 -110.5 40.5t-40.5 110.5v178q0 70 40.5 111zM202 644q-39 0 -57.5 -23.5t-18.5 -71.5v-156q0 -47 18.5 -70t57.5 -23q76 0 76 93v156q0 95 -76 95z" />
    <glyph glyph-name="Euro" unicode="&#x20ac;" horiz-adv-x="567" 
d="M78 310v83h-74l30 73h44v30q0 63 31 112.5t85.5 77.5t121.5 28q58 0 104 -13l-15 -88q-37 8 -82 8q-66 0 -104.5 -36t-38.5 -98v-21h220l-30 -73h-191v-83h221l-30 -73h-190v-24q0 -61 39 -98t103 -37q53 0 83 8l15 -87q-46 -13 -104 -13q-68 0 -122 27.5t-85 77.5
t-31 114v32h-76l32 73h44z" />
    <glyph glyph-name="trademark" unicode="&#x2122;" horiz-adv-x="853" 
d="M29 635v67h319v-67h-121v-396h-75v396h-123zM451 702l139 -256l136 256h78v-463h-74l2 323l-110 -202h-66l-109 201l2 -322h-75v463h77z" />
    <glyph glyph-name="uni2126" unicode="&#x2126;" horiz-adv-x="628" 
d="M121 87q-55 63 -55 173v232q0 68 32 118t88.5 77t128.5 27t128 -27t88 -77t32 -118v-232q0 -62 -14.5 -103t-40.5 -70h86v-87h-220v61q48 33 70 79t22 109v230q0 70 -41.5 108t-109.5 38q-69 0 -110.5 -38t-41.5 -108v-230q0 -63 22 -109t71 -79v-61h-221v87h86z" />
    <glyph glyph-name="uni2153" unicode="&#x2153;" horiz-adv-x="715" 
d="M639 700l-482 -750l-70 49l478 747zM60 564l-37 58l115 82h64v-462h-79v364zM570 81q16 -19 48 -19q33 0 51.5 18.5t18.5 50.5v11q0 34 -11.5 53t-31.5 19h-70v61h69q19 0 29.5 22.5t10.5 44.5q0 25 -16 42t-47 17t-46.5 -18t-18.5 -46l-74 22q7 49 43 81t96 32
q67 0 104 -36t37 -92q0 -26 -10.5 -52.5t-28.5 -44.5q21 -12 34 -41t13 -58v-19q0 -63 -40.5 -101t-111.5 -38q-62 0 -99 33t-44 83l76 23q3 -29 19 -48z" />
    <glyph glyph-name="partialdiff" unicode="&#x2202;" horiz-adv-x="572" 
d="M392.5 45q-61.5 -55 -156.5 -55q-87 0 -133.5 45t-46.5 124q0 10 2 34l16 131q12 96 66 148.5t139 52.5q38 0 73.5 -15t57.5 -41l12 81q2 20 2 27q0 51 -29.5 77t-82.5 26q-41 0 -95 -14l-22 70q24 12 63 20.5t69 8.5q90 0 140.5 -44.5t50.5 -126.5q0 -20 -3 -41
l-48 -357q-13 -96 -74.5 -151zM348.5 424q-31.5 19 -65.5 19q-53 0 -81 -33.5t-37 -100.5l-14 -105q-2 -22 -2 -31q0 -49 24 -74.5t71 -25.5q55 0 89 35t43 102l22 168q-18 27 -49.5 46z" />
    <glyph glyph-name="uni2206" unicode="&#x2206;" horiz-adv-x="628" 
d="M269 700h92l229 -622v-78h-550v78zM313 587l-167 -500h336z" />
    <glyph glyph-name="product" unicode="&#x220f;" horiz-adv-x="712" 
d="M55 613v87h603v-87h-72v-723h-96v723h-267v-723h-96v723h-72z" />
    <glyph glyph-name="summation" unicode="&#x2211;" horiz-adv-x="592" 
d="M331 299l-273 323v78h477l-1 -82l-347 1l269 -318l-275 -329h353l1 -82h-477v81z" />
    <glyph glyph-name="minus" unicode="&#x2212;" horiz-adv-x="565" 
d="M515 345v-86h-464v86h464z" />
    <glyph glyph-name="radical" unicode="&#x221a;" horiz-adv-x="723" 
d="M81 175l-30 78l150 70l126 -323l262 750l91 -29l-309 -831h-88l-135 320z" />
    <glyph glyph-name="infinity" unicode="&#x221e;" horiz-adv-x="1059" 
d="M659.5 459.5q64.5 36.5 141.5 36.5q93 0 147 -57.5t54 -156.5t-53.5 -156.5t-147.5 -57.5q-78 0 -143.5 36t-128.5 115q-63 -80 -128 -116.5t-142 -36.5q-94 0 -147.5 57.5t-53.5 156.5t53.5 156.5t147.5 57.5q77 0 143 -36t129 -115q64 80 128.5 116.5zM375.5 381.5
q-47.5 30.5 -108.5 30.5q-60 0 -91 -35t-31 -97q0 -61 31 -95.5t91 -34.5q61 0 108.5 29.5t102.5 100.5q-55 71 -102.5 101.5zM685 180q47 -30 108 -30t91.5 35t30.5 97t-30.5 96t-91.5 34t-108 -29.5t-102 -100.5q55 -72 102 -102z" />
    <glyph glyph-name="integral" unicode="&#x222b;" horiz-adv-x="397" 
d="M57 -107l14 79q48 0 69.5 31.5t21.5 98.5q0 57 -4 132t-5 96q-9 140 -9 223q0 100 43 153.5t131 53.5q11 0 23 -3l-14 -78q-48 0 -69.5 -31.5t-21.5 -99.5q0 -57 4 -132t5 -96q9 -140 9 -223q0 -99 -43 -153t-131 -54q-11 0 -23 3z" />
    <glyph glyph-name="approxequal" unicode="&#x2248;" horiz-adv-x="572" 
d="M96.5 425q35.5 34 89.5 34q28 0 54 -9.5t64 -27.5q29 -14 48 -21.5t36 -7.5q25 0 40 16.5t19 41.5l74 -12q-7 -54 -41 -87t-93 -33q-27 0 -51 8.5t-59 26.5q-30 15 -50.5 23t-41.5 8q-26 0 -41 -16.5t-18 -41.5l-73 13q8 51 43.5 85zM96.5 212.5q35.5 33.5 89.5 33.5
q28 0 54 -9.5t64 -27.5q29 -14 48 -21.5t36 -7.5q25 0 40 16.5t19 41.5l74 -12q-7 -54 -41 -87t-93 -33q-27 0 -51 8.5t-59 26.5q-30 15 -50.5 23t-41.5 8q-26 0 -41 -16.5t-18 -41.5l-73 13q8 52 43.5 85.5z" />
    <glyph glyph-name="notequal" unicode="&#x2260;" horiz-adv-x="557" 
d="M51 133v86h149l66 140h-215v86h256l73 150l75 -32l-57 -118h109v-86h-150l-67 -140h217v-86h-258l-69 -146l-77 28l56 118h-108z" />
    <glyph glyph-name="lessequal" unicode="&#x2264;" horiz-adv-x="333" 
d="M250 125l-192 187v68l192 187l42 -60l-156 -161l156 -160zM276 81v-81h-218v81h218z" />
    <glyph glyph-name="greaterequal" unicode="&#x2265;" horiz-adv-x="333" 
d="M198 346l-156 161l42 60l193 -187v-68l-193 -187l-42 61zM276 81v-81h-218v81h218z" />
    <glyph glyph-name="lozenge" unicode="&#x25ca;" horiz-adv-x="600" 
d="M301 730l261 -380l-261 -380l-261 380zM301 594l-161 -244l161 -244l161 244z" />
    <glyph glyph-name="uniF8FF" unicode="&#xf8ff;" horiz-adv-x="1627" 
d="M883 590.5q-17 -17.5 -42 -17.5t-42 17.5t-17 43.5q0 24 17 41.5t42 17.5t42 -17.5t17 -41.5q0 -26 -17 -43.5zM314 521.5q4 -88.5 4 -194.5h-116q0 76 2.5 147t5 110t3.5 50h95q2 -24 6 -112.5zM598 554l116 36l4 -30h172q1 -5 2.5 -29.5t3.5 -76t2 -127.5h-114
q0 110 2 144h-57l2 -63l2.5 -1t8.5 -1q8 0 12 1.5t5 2.5v-72q0 -1 -5 -5t-19 -8t-38 -4q-78 0 -78 64q0 32 1 55.5t1 30.5h-23v83zM500 385q-6 -32 -23 -48t-51 -16q-42 0 -65.5 28t-23.5 84q0 65 31 98t101 33q116 0 116 -112v-125h-76zM1031 387q3 -48 3 -60h-113
q0 76 2.5 128t5 76t3.5 29h76q1 -7 3.5 -30.5t2.5 -43.5q1 2 10.5 40t70.5 38q40 0 56.5 -23.5t17.5 -77.5l2 -136h-112l1 60q1 12 1 34q0 14 -3.5 19.5t-11.5 5.5q-17 0 -17 -25q0 -10 2 -34zM1216.5 353q-30.5 32 -30.5 87q0 124 120 124q69 0 95 -33t26 -91
q0 -55 -30.5 -87t-90.5 -32q-59 0 -89.5 32zM449 407q6 -8 15 -8q11 0 17.5 8t6.5 22q0 27 -24 27q-21 0 -21 -27q0 -14 6 -22zM1289 407q6 -8 17 -8t17.5 8t6.5 22q0 27 -24 27q-23 0 -23 -27q0 -14 6 -22zM200 277l121 40l4 -29h165l-2 -106q0 -26 16 -26q15 0 15 26
l-2 106h106q1 -10 3.5 -50.5t2.5 -94.5q0 -71 -36 -104t-114 -33q-31 0 -51.5 4.5t-30 9.5t-11.5 7v83q2 -2 10.5 -6.5t24.5 -8.5t37 -4q29 0 45 8t21.5 16.5t5.5 11.5q-1 -1 -6 -4.5t-18 -7t-33 -3.5q-45 0 -69 17t-24 57v8h-45l2 -61q11 0 18.5 2.5t9.5 3.5v-74
q-1 -1 -8 -5t-22 -8t-37 -4q-73 0 -73 64q0 31 1 53.5t1 28.5h-27v83zM774 34.5q1 -10.5 1 -28.5h-127q0 76 2.5 138.5t5 98.5t3.5 45h78q1 -8 4 -34t3 -41q14 83 78 83q35 0 56.5 -29.5t21.5 -82.5q0 -66 -33 -101t-94 -35q0 -3 1 -13.5zM1098.5 125.5q11.5 3.5 17 7
t6.5 4.5v-73q-2 -1 -9.5 -5t-23.5 -7.5t-39 -3.5q-67 0 -100 32.5t-33 88.5q0 63 31 95t92 32q52 0 82 -30.5t30 -83.5q0 -14 -2 -24t-3 -12h-120q0 -5 9 -14.5t35 -9.5q16 0 27.5 3.5zM1186 227q-11 11 -11 26t11 26t26 11t26 -11t11 -26t-11 -26t-26 -11t-26 11zM1191 232
q9 -9 21 -9t21 9t9 21t-9 21t-21 9t-21 -9t-9 -21t9 -21zM1198 272h16q7 0 11 -3.5t4 -8.5q0 -9 -8 -12l8 -13h-9l-7 11h-7v-11h-8v37zM1214 253q7 0 7 6t-7 6h-8v-12h8zM1021 171h39q0 1 0.5 3t0.5 5q0 9 -5 14t-13 5q-22 0 -22 -27zM755.5 139q1.5 -8 2.5 -10q3 0 12 2.5
t17.5 10.5t8.5 23q0 10 -5 15.5t-14 5.5q-23 0 -23 -30q0 -9 1.5 -17z" />
    <glyph glyph-name="uni0326.cap" horiz-adv-x="0" 
d="M-381 -170.5q13 10.5 13 25.5q-20 12 -20 45q0 27 14 41t39 14q26 0 40.5 -14t14.5 -41q0 -43 -27.5 -81.5t-87.5 -48.5l-15 47q16 2 29 12.5z" />
    </font>
</defs>
</svg>
